<?xml version="1.0" encoding="UTF-8"?>
<svg xmlns="http://www.w3.org/2000/svg" xmlns:xlink="http://www.w3.org/1999/xlink" version="1.2" >
<font id="ITC Franklin Gothic Std Medium Condensed">
<font-face  font-family="ITC Franklin Gothic Std" units-per-em="1000" ascent="686" descent="-314" font-style="normal" font-weight="500" font-stretch="condensed" cap-height="686" x-height="511" underline-position="-75" underline-thickness="50" />
<missing-glyph  horiz-adv-x="500" d="M0 0 L500 0 L500 700 L0 700 L0 0 Z M250 395 L80 650 L420 650 L250 395 Z M280 350 L450 605 L450 95 L280 350 Z M80 50 L250 305 L420 50 L80 50 Z M50 605 L220 350 L50 95 L50 605 Z " />
<glyph glyph-name="NULL" d="" />
<glyph glyph-name="CR" unicode="&#xd;" horiz-adv-x="250" d="" />
<glyph glyph-name="space" unicode="&#x20;" horiz-adv-x="250" d="" />
<glyph glyph-name="exclam" unicode="&#x21;" horiz-adv-x="341" d="M103 667 L137 180 L204 180 L238 667 L103 667 Z M115 123 L115 0 L226 0 L226 123 L115 123 Z " />
<glyph glyph-name="quotedbl" unicode="&#x22;" horiz-adv-x="375" d="M163 667 L60 667 L76 393 L147 393 L163 667 Z M316 667 L213 667 L229 393 L300 393 L316 667 Z " />
<glyph glyph-name="numbersign" unicode="&#x23;" horiz-adv-x="511" d="M183 667 L150 473 L54 473 L43 405 L139 405 L117 276 L21 276 L10 208 L106 208 L71 0 L143 0 L178 208 L289 208 L254 0 L326 0 L361 208 L457 208 L468 276 L372 276 L394 405 L490 405 L501 473 L405 473 L437 667 L365 667 L333 473 L222 473 L255 667 L183 667 Z M322 405 L300 276 L189 276 L211 405 L322 405 Z " />
<glyph glyph-name="dollar" unicode="&#x24;" horiz-adv-x="511" d="M289 720 L228 720 L228 654 C205 651 174 645 140 622 C98 593 70 538 70 478 C70 348 187 313 231 300 L231 101 C169 116 147 154 133 209 L46 180 C68 102 104 35 228 19 L228 -66 L289 -66 L289 19 C321 23 358 27 398 58 C431 84 466 131 466 206 C466 339 356 372 286 392 L286 576 C330 567 353 543 373 487 L452 520 C428 595 390 642 289 654 L289 720 Z M231 409 C211 415 164 431 164 491 C164 555 212 569 231 574 L231 409 Z M286 284 C313 277 371 262 371 192 C371 137 338 109 286 101 L286 284 Z " />
<glyph glyph-name="percent" unicode="&#x25;" horiz-adv-x="681" d="M174 673 C96 673 42 613 42 501 C42 384 99 328 174 328 C246 328 305 381 305 501 C305 611 253 673 174 673 L174 673 Z M174 612 C208 612 227 583 227 501 C227 423 211 389 174 389 C145 389 120 406 120 501 C120 598 147 612 174 612 L174 612 Z M508 339 C433 339 377 283 377 166 C377 55 429 -6 508 -6 C584 -6 639 53 639 166 C639 279 585 339 508 339 L508 339 Z M508 278 C542 278 561 247 561 166 C561 77 539 55 508 55 C479 55 469 75 463 92 C456 113 454 140 454 165 C454 256 477 278 508 278 L508 278 Z M471 667 L146 0 L212 0 L537 667 L471 667 Z " />
<glyph glyph-name="ampersand" unicode="&#x26;" horiz-adv-x="630" d="M504 372 C484 261 459 219 445 197 L331 361 C363 379 453 432 453 534 C453 602 411 679 303 679 C201 679 146 602 146 535 C146 474 184 413 204 381 C114 339 59 278 59 184 C59 92 117 -12 260 -12 C350 -12 399 30 430 57 C455 27 485 -9 543 -9 C566 -9 582 -4 598 0 L598 86 C587 84 577 82 567 82 C534 82 513 107 497 127 C540 191 567 252 586 354 L504 372 Z M243 537 C243 581 273 604 305 604 C341 604 365 576 365 535 C365 486 330 446 288 421 C270 448 243 496 243 537 L243 537 Z M383 121 C363 101 334 71 274 71 C205 71 165 123 165 189 C165 267 220 302 247 319 L383 121 Z " />
<glyph glyph-name="quotesingle" unicode="&#x27;" horiz-adv-x="221" d="M162 667 L59 667 L75 393 L146 393 L162 667 Z " />
<glyph glyph-name="parenleft" unicode="&#x28;" horiz-adv-x="324" d="M188 667 C154 619 53 473 53 250 C53 95 99 -40 188 -167 L269 -167 C173 -9 155 154 155 250 C155 397 193 541 269 667 L188 667 Z " />
<glyph glyph-name="parenright" unicode="&#x29;" horiz-adv-x="324" d="M136 -167 C170 -118 271 27 271 250 C271 338 254 430 219 517 C190 589 158 635 136 667 L55 667 C131 541 169 397 169 250 C169 103 131 -41 55 -167 L136 -167 Z " />
<glyph glyph-name="asterisk" unicode="&#x2a;" horiz-adv-x="511" d="M219 667 L230 535 L120 608 L86 541 L201 490 L86 438 L120 372 L230 445 L219 313 L292 313 L281 445 L391 372 L425 438 L310 490 L425 541 L391 608 L281 535 L292 667 L219 667 Z " />
<glyph glyph-name="plus" unicode="&#x2b;" horiz-adv-x="511" d="M298 374 L298 538 L213 538 L213 374 L51 374 L51 293 L213 293 L213 129 L298 129 L298 293 L460 293 L460 374 L298 374 Z " />
<glyph glyph-name="comma" unicode="&#x2c;" horiz-adv-x="239" d="M69 126 L69 0 L120 0 L59 -141 L108 -141 L180 6 L180 126 L69 126 Z " />
<glyph glyph-name="hyphen" unicode="&#x2d;" horiz-adv-x="290" d="M39 291 L39 209 L250 209 L250 291 L39 291 Z " />
<glyph glyph-name="period" unicode="&#x2e;" horiz-adv-x="239" d="M64 126 L64 0 L175 0 L175 126 L64 126 Z " />
<glyph glyph-name="slash" unicode="&#x2f;" horiz-adv-x="477" d="M353 667 L-15 -167 L61 -167 L429 667 L353 667 Z " />
<glyph glyph-name="zero" unicode="0" horiz-adv-x="511" d="M255 679 C72 679 38 498 38 325 C38 159 80 -12 255 -12 C440 -12 473 171 473 342 C473 507 431 679 255 679 L255 679 Z M255 597 C341 597 359 482 359 333 C359 175 338 70 255 70 C169 70 152 185 152 333 C152 475 167 597 255 597 L255 597 Z " />
<glyph glyph-name="one" unicode="1" horiz-adv-x="511" d="M438 82 L330 82 L330 674 L249 674 C208 619 162 580 104 547 L104 444 C175 484 202 515 222 539 L222 82 L107 82 L107 0 L438 0 L438 82 Z " />
<glyph glyph-name="two" unicode="2" horiz-adv-x="511" d="M132 453 C136 485 149 588 239 588 C310 588 333 526 333 476 C333 423 307 377 287 350 C218 255 91 146 32 96 L32 0 L446 0 L451 97 L150 97 C403 284 447 386 447 483 C447 581 388 679 247 679 C73 679 42 524 32 474 L132 453 Z " />
<glyph glyph-name="three" unicode="3" horiz-adv-x="511" d="M131 495 C139 526 158 594 236 594 C300 594 328 546 328 490 C328 461 321 427 293 406 C268 387 242 387 206 387 L164 387 L164 305 L206 305 C247 305 341 304 341 192 C341 105 286 75 234 75 C139 75 121 161 115 189 L20 166 C26 134 34 93 69 55 C120 -3 198 -12 239 -12 C359 -12 457 54 457 187 C457 214 452 257 426 292 C395 334 358 344 335 351 C373 368 439 399 439 500 C439 620 355 679 246 679 C84 679 49 556 38 517 L131 495 Z " />
<glyph glyph-name="four" unicode="4" horiz-adv-x="511" d="M271 679 L30 240 L30 159 L290 159 L290 0 L397 0 L397 159 L480 159 L480 243 L397 243 L397 679 L271 679 Z M118 240 L295 581 L295 240 L118 240 Z " />
<glyph glyph-name="five" unicode="5" horiz-adv-x="511" d="M89 667 L68 301 L151 283 C162 308 184 356 255 356 C339 356 362 286 362 221 C362 189 357 146 332 114 C319 97 295 79 252 79 C166 79 150 144 140 183 L41 159 C48 125 56 86 98 45 C143 0 201 -12 250 -12 C362 -12 469 55 469 225 C469 379 384 447 286 447 C212 447 182 410 162 385 L172 570 L425 570 L435 667 L89 667 Z " />
<glyph glyph-name="six" unicode="6" horiz-adv-x="511" d="M474 517 C464 557 432 679 283 679 C252 679 214 673 176 648 C66 575 54 409 54 318 C54 269 59 210 75 150 C83 121 127 -12 275 -12 C397 -12 480 74 480 212 C480 359 387 430 298 430 C203 430 171 363 156 331 C160 454 175 593 281 593 C357 593 374 523 383 488 L474 517 Z M276 344 C373 344 373 230 373 210 C373 172 368 73 274 73 C201 73 168 140 168 209 C168 260 189 344 276 344 L276 344 Z " />
<glyph glyph-name="seven" unicode="7" horiz-adv-x="511" d="M56 570 L350 570 C298 501 151 307 150 0 L267 0 C267 49 266 146 303 280 C351 456 411 538 449 589 L449 667 L64 667 L56 570 Z " />
<glyph glyph-name="eight" unicode="8" horiz-adv-x="511" d="M353 360 C387 378 457 415 457 509 C457 538 450 575 426 609 C384 666 314 679 261 679 C106 679 56 575 56 496 C56 402 120 362 157 339 C114 318 34 278 34 170 C34 109 59 64 90 37 C141 -7 214 -12 250 -12 C412 -12 477 90 477 183 C477 298 387 343 353 360 L353 360 Z M270 395 C219 415 162 444 162 511 C162 567 205 602 261 602 C328 602 361 555 361 507 C361 444 311 417 270 395 L270 395 Z M236 298 C302 271 371 241 371 166 C371 100 314 67 254 67 C191 67 133 102 133 176 C133 251 197 280 236 298 L236 298 Z " />
<glyph glyph-name="nine" unicode="9" horiz-adv-x="511" d="M44 134 C62 80 93 -12 226 -12 C404 -12 456 159 456 358 C456 515 417 679 242 679 C101 679 32 572 32 455 C32 330 108 236 216 236 C303 236 334 292 352 324 C349 218 338 73 233 73 C163 73 148 127 139 162 L44 134 Z M241 593 C316 593 343 519 343 460 C343 407 320 327 240 327 C172 327 139 384 139 458 C139 553 188 593 241 593 L241 593 Z " />
<glyph glyph-name="colon" unicode="&#x3a;" horiz-adv-x="239" d="M64 126 L64 0 L175 0 L175 126 L64 126 Z M64 493 L64 367 L175 367 L175 493 L64 493 Z " />
<glyph glyph-name="semicolon" unicode="&#x3b;" horiz-adv-x="239" d="M69 126 L69 0 L120 0 L59 -141 L108 -141 L180 6 L180 126 L69 126 Z M69 493 L69 367 L180 367 L180 493 L69 493 Z " />
<glyph glyph-name="less" unicode="&#x3c;" horiz-adv-x="511" d="M472 588 L39 377 L39 290 L472 78 L472 179 L147 333 L472 488 L472 588 Z " />
<glyph glyph-name="equal" unicode="&#x3d;" horiz-adv-x="511" d="M460 361 L460 442 L51 442 L51 361 L460 361 Z M460 224 L460 305 L51 305 L51 224 L460 224 Z " />
<glyph glyph-name="greater" unicode="&#x3e;" horiz-adv-x="511" d="M39 78 L472 290 L472 376 L39 588 L39 488 L364 334 L39 179 L39 78 Z " />
<glyph glyph-name="question" unicode="&#x3f;" horiz-adv-x="494" d="M133 454 C136 495 144 592 234 592 C283 592 320 563 320 499 C320 435 286 402 260 379 C178 309 178 304 176 178 L268 178 C266 250 268 264 331 316 C380 357 431 402 431 497 C431 600 366 679 240 679 C183 679 125 663 85 611 C46 560 41 503 38 472 L133 454 Z M167 120 L167 0 L276 0 L276 120 L167 120 Z " />
<glyph glyph-name="at" unicode="&#x40;" horiz-adv-x="596" d="M389 507 L381 453 C373 473 356 514 302 514 C214 514 160 410 160 295 C160 192 206 134 268 134 C324 134 344 173 355 193 C363 166 371 136 427 136 C514 136 589 231 589 384 C589 555 495 684 318 684 C120 684 7 523 7 326 C7 114 137 -16 325 -16 C424 -16 494 23 528 42 L505 95 C474 76 418 43 328 43 C164 43 80 172 80 329 C80 487 165 625 316 625 C425 625 521 553 521 376 C521 269 482 200 437 200 C422 200 412 205 412 234 C412 254 417 293 418 300 L447 507 L389 507 Z M306 441 C347 441 352 385 352 356 C352 349 351 207 283 207 C256 207 237 240 237 297 C237 360 257 441 306 441 L306 441 Z " />
<glyph glyph-name="A" unicode="A" horiz-adv-x="494" d="M189 667 L-4 0 L102 0 L143 167 L337 167 L379 0 L491 0 L313 667 L189 667 Z M164 254 L240 560 L315 254 L164 254 Z " />
<glyph glyph-name="B" unicode="B" horiz-adv-x="545" d="M64 667 L64 0 L268 0 C325 0 368 2 420 32 C472 61 496 127 496 186 C496 247 472 287 450 311 C425 335 401 343 376 351 C407 363 475 390 475 497 C475 529 468 576 437 615 C396 667 329 667 265 667 L64 667 Z M172 582 L252 582 C286 582 362 582 362 488 C362 393 289 390 242 390 L172 390 L172 582 Z M172 305 L252 305 C287 305 383 305 383 196 C383 130 349 88 261 88 L172 88 L172 305 Z " />
<glyph glyph-name="C" unicode="C" horiz-adv-x="528" d="M399 224 C383 127 355 79 287 79 C181 79 159 208 159 328 C159 434 172 588 287 588 C379 588 392 493 399 437 L502 451 C494 508 471 679 285 679 C63 679 42 437 42 331 C42 221 66 -12 283 -12 C468 -12 493 156 501 210 L399 224 Z " />
<glyph glyph-name="D" unicode="D" horiz-adv-x="562" d="M65 667 L65 0 L223 0 C284 0 347 10 394 43 C467 94 520 197 520 339 C520 437 496 522 442 585 C378 657 280 667 215 667 L65 667 Z M221 579 C363 579 403 462 403 333 C403 287 399 187 337 128 C319 109 283 88 221 88 L175 88 L175 579 L221 579 Z " />
<glyph glyph-name="E" unicode="E" horiz-adv-x="460" d="M64 667 L64 0 L450 0 L450 90 L174 90 L174 299 L387 299 L387 387 L174 387 L174 579 L445 579 L445 667 L64 667 Z " />
<glyph glyph-name="F" unicode="F" horiz-adv-x="426" d="M64 667 L64 0 L174 0 L174 291 L382 291 L382 379 L174 379 L174 579 L434 579 L434 667 L64 667 Z " />
<glyph glyph-name="G" unicode="G" horiz-adv-x="562" d="M291 342 L291 254 L410 254 C410 210 410 79 295 79 C177 79 159 221 159 334 C159 480 190 588 293 588 C379 588 396 513 410 451 L510 476 C490 579 446 679 292 679 C70 679 42 446 42 324 C42 183 91 -12 280 -12 C385 -12 422 49 440 80 L454 -5 L513 -5 L513 342 L291 342 Z " />
<glyph glyph-name="H" unicode="H" horiz-adv-x="545" d="M64 667 L64 0 L174 0 L174 297 L371 297 L371 0 L481 0 L481 667 L371 667 L371 390 L174 390 L174 667 L64 667 Z " />
<glyph glyph-name="I" unicode="I" horiz-adv-x="239" d="M64 667 L64 0 L174 0 L174 667 L64 667 Z " />
<glyph glyph-name="J" unicode="J" horiz-adv-x="307" d="M135 667 L135 252 C135 133 133 82 49 82 C20 82 0 87 -16 91 L-16 0 C20 -8 39 -12 70 -12 C245 -12 245 118 245 252 L245 667 L135 667 Z " />
<glyph glyph-name="K" unicode="K" horiz-adv-x="511" d="M64 667 L64 0 L174 0 L174 219 L253 330 L402 0 L521 0 L320 422 L492 667 L375 667 L174 349 L174 667 L64 667 Z " />
<glyph glyph-name="L" unicode="L" horiz-adv-x="409" d="M64 667 L64 0 L410 0 L410 93 L174 93 L174 667 L64 667 Z " />
<glyph glyph-name="M" unicode="M" horiz-adv-x="715" d="M62 667 L62 0 L154 0 L154 570 L309 0 L389 0 L547 569 L547 0 L651 0 L651 667 L494 667 L358 186 L225 667 L62 667 Z " />
<glyph glyph-name="N" unicode="N" horiz-adv-x="562" d="M60 667 L60 0 L152 0 L152 534 L399 0 L502 0 L502 667 L410 667 L410 186 L190 667 L60 667 Z " />
<glyph glyph-name="O" unicode="O" horiz-adv-x="562" d="M282 679 C82 679 42 486 42 333 C42 178 83 -12 283 -12 C490 -12 521 196 521 333 C521 489 481 679 282 679 L282 679 Z M282 588 C340 588 363 553 378 520 C402 464 405 379 405 333 C405 297 403 206 378 147 C363 113 339 79 283 79 C230 79 204 104 185 147 C161 204 158 293 158 333 C158 374 160 463 185 520 C201 556 225 588 282 588 L282 588 Z " />
<glyph glyph-name="P" unicode="P" horiz-adv-x="494" d="M64 667 L64 0 L174 0 L174 260 L231 260 C274 260 348 260 398 295 C460 337 474 416 474 463 C474 511 461 569 420 612 C372 663 302 667 229 667 L64 667 Z M229 582 C277 582 310 582 335 547 C356 517 358 485 358 465 C358 348 280 348 229 348 L174 348 L174 582 L229 582 Z " />
<glyph glyph-name="Q" unicode="Q" horiz-adv-x="562" d="M484 -58 C471 -63 456 -67 433 -67 C375 -67 368 -37 368 5 C410 25 475 56 502 175 C514 227 520 280 520 333 C520 460 494 679 282 679 C84 679 42 490 42 333 C42 160 90 -11 282 -11 C283 -38 283 -64 300 -94 C317 -126 348 -154 419 -154 C450 -154 466 -149 484 -142 L484 -58 Z M281 79 C201 79 158 147 158 333 C158 357 158 458 185 520 C200 555 225 588 281 588 C339 588 362 554 377 519 C402 462 404 367 404 333 C404 98 329 79 281 79 L281 79 Z " />
<glyph glyph-name="R" unicode="R" horiz-adv-x="528" d="M64 667 L64 0 L174 0 L174 279 L278 279 L383 0 L502 0 L375 302 C404 317 478 356 478 477 C478 556 444 607 408 633 C373 658 328 667 265 667 L64 667 Z M260 582 C283 582 369 582 369 478 C369 412 338 364 259 364 L174 364 L174 582 L260 582 Z " />
<glyph glyph-name="S" unicode="S" horiz-adv-x="511" d="M461 518 C447 564 412 679 255 679 C114 679 50 582 50 491 C50 429 79 382 110 355 C146 324 177 312 251 284 C311 262 365 238 365 175 C365 144 349 79 257 79 C148 79 128 172 121 202 L23 174 C34 129 67 -12 254 -12 C410 -12 478 94 478 190 C478 322 368 364 291 393 C212 424 158 444 158 504 C158 534 178 588 249 588 C318 588 346 547 367 485 L461 518 Z " />
<glyph glyph-name="T" unicode="T" horiz-adv-x="375" d="M-16 667 L-16 573 L131 573 L131 0 L241 0 L241 573 L390 573 L390 667 L-16 667 Z " />
<glyph glyph-name="U" unicode="U" horiz-adv-x="545" d="M59 667 L59 253 C59 135 62 -12 272 -12 C350 -12 391 10 417 29 C484 79 486 163 486 260 L486 667 L387 667 L387 255 C387 159 387 79 278 79 C167 79 167 164 167 253 L167 667 L59 667 Z " />
<glyph glyph-name="V" unicode="V" horiz-adv-x="460" d="M-4 667 L168 0 L288 -2 L463 667 L366 667 L239 135 L112 667 L-4 667 Z " />
<glyph glyph-name="W" unicode="W" horiz-adv-x="698" d="M2 667 L146 -2 L247 -2 L351 488 L456 -2 L556 -2 L696 667 L603 667 L508 167 L405 667 L309 667 L205 167 L115 667 L2 667 Z " />
<glyph glyph-name="X" unicode="X" horiz-adv-x="443" d="M8 667 L165 345 L-14 0 L91 0 L219 255 L333 0 L456 0 L281 364 L436 667 L333 667 L226 454 L131 667 L8 667 Z " />
<glyph glyph-name="Y" unicode="Y" horiz-adv-x="409" d="M-31 667 L146 282 L146 0 L256 0 L256 282 L441 667 L335 667 L211 389 L89 667 L-31 667 Z " />
<glyph glyph-name="Z" unicode="Z" horiz-adv-x="426" d="M19 667 L19 577 L293 577 L1 85 L1 0 L426 0 L426 93 L123 93 L419 590 L419 667 L19 667 Z " />
<glyph glyph-name="bracketleft" unicode="&#x5b;" horiz-adv-x="324" d="M79 667 L79 -167 L252 -167 L252 -111 L174 -111 L174 611 L252 611 L252 667 L79 667 Z " />
<glyph glyph-name="backslash" unicode="&#x5c;" horiz-adv-x="477" d="M124 667 L48 667 L416 -167 L492 -167 L124 667 Z " />
<glyph glyph-name="bracketright" unicode="&#x5d;" horiz-adv-x="324" d="M245 -167 L245 667 L72 667 L72 611 L150 611 L150 -111 L72 -111 L72 -167 L245 -167 Z " />
<glyph glyph-name="asciicircum" unicode="&#x5e;" horiz-adv-x="511" d="M496 316 L307 674 L204 674 L15 316 L111 316 L255 594 L400 316 L496 316 Z " />
<glyph glyph-name="underscore" unicode="&#x5f;" horiz-adv-x="500" d="M0 -125 L500 -125 L500 -75 L0 -75 L0 -125 Z " />
<glyph glyph-name="grave" unicode="&#x60;" horiz-adv-x="500" d="M325 590 L169 727 L116 660 L288 552 L325 590 Z " />
<glyph glyph-name="a" unicode="a" horiz-adv-x="460" d="M151 353 C155 374 166 430 231 430 C304 430 304 360 304 324 L304 304 C233 306 179 298 137 284 C78 264 35 209 35 130 C35 39 93 -12 173 -12 C261 -12 293 47 312 82 C312 36 314 24 319 0 L414 0 C406 34 406 95 406 137 L406 304 C406 357 406 418 375 452 C352 479 310 505 239 505 C193 505 76 493 53 366 L151 353 Z M304 216 C304 107 250 63 207 63 C173 63 141 78 141 137 C141 183 156 242 274 242 C281 242 288 242 304 241 L304 216 Z " />
<glyph glyph-name="b" unicode="b" horiz-adv-x="477" d="M59 667 L59 0 L117 0 C126 35 130 46 139 67 C155 34 177 -10 260 -10 C278 -10 311 -8 344 10 C434 59 442 198 442 252 C442 353 412 502 275 502 C207 502 178 462 160 437 L160 667 L59 667 Z M160 301 C160 324 160 362 192 400 C213 425 237 427 249 427 C319 427 334 355 334 254 C334 128 312 67 247 67 C160 67 160 177 160 209 L160 301 Z " />
<glyph glyph-name="c" unicode="c" horiz-adv-x="409" d="M401 327 C394 380 375 505 228 505 C67 505 35 360 35 245 C35 141 61 -12 221 -12 C376 -12 393 109 401 170 L303 179 C299 137 292 72 229 72 C142 72 142 192 142 236 C142 355 159 424 229 424 C286 424 296 375 303 317 L401 327 Z " />
<glyph glyph-name="d" unicode="d" horiz-adv-x="477" d="M317 667 L317 436 C305 458 281 502 204 502 C106 502 35 413 35 244 C35 149 61 -9 200 -9 C286 -9 311 46 324 75 L324 0 L418 0 L418 667 L317 667 Z M317 205 C317 151 309 127 296 107 C281 84 258 68 229 68 C152 68 143 169 143 253 C143 332 153 427 228 427 C263 427 285 402 296 386 C317 354 317 322 317 290 L317 205 Z " />
<glyph glyph-name="e" unicode="e" horiz-adv-x="443" d="M418 231 C417 291 416 352 382 419 C362 458 313 505 233 505 C123 505 36 421 36 239 C36 110 86 -12 232 -12 C377 -12 405 107 414 144 L322 157 C314 122 301 65 235 65 C140 65 140 176 140 231 L418 231 Z M142 300 C147 367 168 430 230 430 C250 430 290 420 306 370 C315 341 315 319 315 300 L142 300 Z " />
<glyph glyph-name="f" unicode="f" horiz-adv-x="256" d="M174 493 C174 570 175 603 240 603 C257 603 269 601 278 599 L278 680 C262 683 247 686 218 686 C78 686 77 584 75 493 L10 493 L10 411 L75 411 L75 0 L174 0 L174 411 L263 411 L263 493 L174 493 Z " />
<glyph glyph-name="g" unicode="g" horiz-adv-x="443" d="M444 572 C434 573 425 575 412 575 C337 575 328 522 321 484 C300 493 274 505 227 505 C126 505 54 441 54 343 C54 262 94 234 118 217 C96 206 45 180 45 119 C45 69 80 49 99 37 C77 29 27 11 27 -58 C27 -169 156 -182 226 -182 C317 -182 450 -160 450 -29 C450 93 354 98 258 104 C158 109 133 110 133 147 C133 175 155 184 170 191 C187 186 205 182 233 182 C350 182 404 263 404 340 C404 380 391 415 366 446 C374 487 391 500 420 500 C428 500 434 499 443 497 L444 572 Z M232 438 C295 438 299 364 299 341 C299 329 299 246 229 246 C159 246 159 326 159 341 C159 383 169 438 232 438 L232 438 Z M162 21 C183 20 277 16 296 14 C319 12 355 2 355 -43 C355 -104 281 -111 238 -111 C163 -111 119 -95 119 -42 C119 -2 148 14 162 21 L162 21 Z " />
<glyph glyph-name="h" unicode="h" horiz-adv-x="460" d="M60 667 L60 0 L162 0 L162 282 C162 340 170 423 240 423 C301 423 301 367 301 311 L301 0 L403 0 L403 311 C403 361 403 413 386 446 C359 498 307 505 279 505 C200 505 177 458 162 427 L162 667 L60 667 Z " />
<glyph glyph-name="i" unicode="i" horiz-adv-x="222" d="M60 493 L60 0 L162 0 L162 493 L60 493 Z M164 560 L164 668 L57 668 L57 560 L164 560 Z " />
<glyph glyph-name="j" unicode="j" horiz-adv-x="222" d="M62 493 L62 20 C62 -63 62 -90 11 -90 C-4 -90 -15 -88 -25 -85 L-25 -170 C-7 -173 11 -177 37 -177 C164 -177 164 -81 164 18 L164 493 L62 493 Z M166 560 L166 668 L60 668 L60 560 L166 560 Z " />
<glyph glyph-name="k" unicode="k" horiz-adv-x="426" d="M60 667 L60 0 L162 0 L162 157 L228 247 L326 0 L436 0 L294 323 L422 493 L321 493 L162 273 L162 667 L60 667 Z " />
<glyph glyph-name="l" unicode="l" horiz-adv-x="222" d="M60 667 L60 0 L162 0 L162 667 L60 667 Z " />
<glyph glyph-name="m" unicode="m" horiz-adv-x="698" d="M60 0 L162 0 L162 287 C162 338 162 423 241 423 C252 423 277 421 290 397 C300 380 300 372 300 300 L300 0 L402 0 L402 289 C402 373 423 423 480 423 C540 423 540 370 540 304 L540 0 L642 0 L642 312 C642 362 641 421 621 453 C594 497 543 505 514 505 C427 505 401 442 389 413 C381 444 367 505 276 505 C195 505 171 454 154 418 L154 493 L60 493 L60 0 Z " />
<glyph glyph-name="n" unicode="n" horiz-adv-x="460" d="M60 0 L162 0 L162 276 C162 327 162 423 242 423 C301 423 301 376 301 312 L301 0 L403 0 L403 318 C403 367 402 413 386 444 C359 497 308 505 276 505 C191 505 166 444 154 417 L154 493 L60 493 L60 0 Z " />
<glyph glyph-name="o" unicode="o" horiz-adv-x="460" d="M231 505 C69 505 36 366 36 247 C36 119 76 -12 229 -12 C397 -12 424 137 424 252 C424 372 385 505 231 505 L231 505 Z M230 428 C288 428 316 374 316 247 C316 115 287 65 230 65 C173 65 144 117 144 246 C144 366 168 428 230 428 L230 428 Z " />
<glyph glyph-name="p" unicode="p" horiz-adv-x="477" d="M59 493 L59 -167 L160 -167 L160 51 C179 25 204 -9 271 -9 C303 -9 343 -1 374 32 C435 96 442 205 442 254 C442 410 375 502 275 502 C196 502 168 443 153 412 L153 493 L59 493 Z M160 288 C160 323 160 354 187 393 C206 420 225 427 248 427 C318 427 334 342 334 251 C334 137 312 68 247 68 C221 68 197 79 179 106 C160 136 160 167 160 206 L160 288 Z " />
<glyph glyph-name="q" unicode="q" horiz-adv-x="477" d="M363 497 C349 456 343 444 331 420 C316 449 288 502 210 502 C184 502 158 496 132 481 C55 436 35 335 35 238 C35 84 98 -9 198 -9 C270 -9 298 38 314 63 L314 -167 L416 -167 L416 382 C416 407 416 454 418 497 L363 497 Z M314 226 C314 97 258 68 227 68 C148 68 143 193 143 248 C143 352 160 427 228 427 C264 427 314 393 314 290 L314 226 Z " />
<glyph glyph-name="r" unicode="r" horiz-adv-x="273" d="M60 493 L60 0 L162 0 L162 251 C162 327 186 407 291 396 L291 502 C286 503 280 504 273 504 C191 504 160 413 150 383 L150 493 L60 493 Z " />
<glyph glyph-name="s" unicode="s" horiz-adv-x="392" d="M357 378 C348 411 321 505 197 505 C93 505 33 431 33 353 C33 252 120 225 188 203 C230 190 275 176 275 128 C275 110 265 63 198 63 C119 63 107 125 103 148 L16 131 C23 95 42 -12 194 -12 C318 -12 375 68 375 144 C375 244 288 273 229 292 C161 314 130 324 130 369 C130 401 152 430 194 430 C253 430 270 378 277 356 L357 378 Z " />
<glyph glyph-name="t" unicode="t" horiz-adv-x="273" d="M257 493 L163 493 L163 630 L71 622 L66 493 L-1 493 L-1 411 L63 411 L63 186 C63 78 63 -12 197 -12 C230 -12 253 -7 273 -3 L273 77 C261 76 249 74 231 74 C163 74 163 107 163 193 L163 411 L257 411 L257 493 Z " />
<glyph glyph-name="u" unicode="u" horiz-adv-x="460" d="M57 493 L57 178 C57 96 57 -12 181 -12 C263 -12 288 38 306 74 L306 0 L400 0 L400 493 L298 493 L298 256 C298 165 298 70 216 70 C159 70 159 111 159 180 L159 493 L57 493 Z " />
<glyph glyph-name="v" unicode="v" horiz-adv-x="358" d="M-5 493 L136 0 L226 0 L365 493 L277 493 L187 139 L94 493 L-5 493 Z " />
<glyph glyph-name="w" unicode="w" horiz-adv-x="562" d="M-1 493 L123 0 L209 0 L280 342 L355 0 L441 0 L564 493 L481 493 L403 152 L333 493 L243 493 L172 154 L100 493 L-1 493 Z " />
<glyph glyph-name="x" unicode="x" horiz-adv-x="358" d="M-1 493 L126 256 L-17 0 L79 0 L172 174 L261 0 L375 0 L229 270 L354 493 L259 493 L184 350 L112 493 L-1 493 Z " />
<glyph glyph-name="y" unicode="y" horiz-adv-x="358" d="M0 493 L140 16 C116 -72 104 -92 48 -92 C34 -92 24 -91 12 -89 L12 -171 C28 -174 41 -177 65 -177 C162 -177 184 -108 208 -31 L368 493 L276 493 L188 155 L102 493 L0 493 Z " />
<glyph glyph-name="z" unicode="z" horiz-adv-x="341" d="M32 493 L32 416 L215 416 L15 77 L15 0 L334 0 L334 77 L124 77 L332 431 L332 493 L32 493 Z " />
<glyph glyph-name="braceleft" unicode="&#x7b;" horiz-adv-x="324" d="M250 666 C138 672 96 643 96 511 L96 403 C96 319 96 291 43 291 L43 221 C96 221 96 194 96 108 L96 -11 C96 -151 146 -172 250 -167 L250 -109 C192 -109 190 -89 190 -11 L190 106 C190 213 186 235 129 256 C187 276 190 299 190 405 L190 511 C190 589 193 607 250 608 L250 666 Z " />
<glyph glyph-name="bar" unicode="&#x7c;" horiz-adv-x="500" d="M301 750 L199 750 L199 -250 L301 -250 L301 750 Z " />
<glyph glyph-name="braceright" unicode="&#x7d;" horiz-adv-x="324" d="M74 -167 C184 -172 228 -145 228 -11 L228 108 C228 193 228 221 281 221 L281 291 C228 291 228 318 228 403 L228 511 C228 653 175 672 74 667 L74 609 C130 608 134 590 134 511 L134 405 C134 302 136 277 195 256 C136 235 134 211 134 106 L134 -11 C134 -90 130 -109 74 -109 L74 -167 Z " />
<glyph glyph-name="asciitilde" unicode="&#x7e;" horiz-adv-x="511" d="M71 251 C85 279 106 318 150 318 C171 318 194 309 202 306 C266 280 314 260 344 260 C438 260 475 338 497 383 L438 417 C421 389 402 358 357 358 C332 358 317 364 266 386 C193 416 171 416 158 416 C73 416 42 350 14 289 L71 251 Z " />
<glyph glyph-name="uni00A0" unicode="&#xa0;" horiz-adv-x="250" d="" />
<glyph glyph-name="exclamdown" unicode="&#xa1;" horiz-adv-x="341" d="M238 -174 L204 313 L137 313 L103 -174 L238 -174 Z M226 370 L226 493 L115 493 L115 370 L226 370 Z " />
<glyph glyph-name="cent" unicode="&#xa2;" horiz-adv-x="511" d="M234 667 L234 576 C215 573 187 569 158 546 C85 489 79 374 79 333 C79 313 80 193 161 132 C188 112 215 107 234 104 L234 -5 L292 -5 L292 104 C410 125 425 223 432 270 L346 281 C337 221 326 200 289 183 L289 501 C321 484 338 464 346 401 L432 412 C416 520 366 565 292 576 L292 667 L234 667 Z M236 185 C216 197 177 220 177 341 C177 360 178 424 200 464 C211 483 225 491 236 497 L236 185 Z " />
<glyph glyph-name="sterling" unicode="&#xa3;" horiz-adv-x="511" d="M266 390 C265 401 264 406 257 452 C254 472 254 490 254 496 C254 515 254 595 326 595 C379 595 399 546 407 524 L486 573 C471 606 439 679 327 679 C184 679 148 571 148 496 C148 461 154 421 159 390 L76 390 L76 311 L172 311 C175 289 179 264 179 231 C179 198 173 160 153 133 C121 88 81 88 54 88 L20 88 L20 0 L273 0 C412 0 475 11 522 135 L443 176 C408 100 366 87 273 87 L198 87 C230 112 280 151 280 260 C280 283 278 297 276 311 L393 311 L393 390 L266 390 Z " />
<glyph glyph-name="currency" unicode="&#xa4;" horiz-adv-x="511" d="M341 485 C328 492 300 509 255 509 C212 509 192 498 171 486 L102 555 L44 497 L114 428 C106 415 90 387 90 343 C90 299 107 271 114 258 L46 189 L102 133 L171 202 C188 192 213 178 255 178 C298 178 318 189 340 202 L409 133 L467 190 L398 260 C408 278 421 301 421 344 C421 388 406 414 397 428 L466 498 L410 554 L341 485 Z M255 258 C209 258 170 296 170 343 C170 390 208 429 255 429 C303 429 341 391 341 344 C341 295 302 258 255 258 L255 258 Z " />
<glyph glyph-name="yen" unicode="&#xa5;" horiz-adv-x="511" d="M28 667 L147 401 L48 401 L48 340 L174 340 L204 271 L48 271 L48 210 L205 210 L205 0 L304 0 L304 210 L472 210 L472 271 L304 271 L333 340 L472 340 L472 401 L361 401 L484 667 L390 667 L263 368 L140 667 L28 667 Z " />
<glyph glyph-name="brokenbar" unicode="&#xa6;" horiz-adv-x="500" d="M301 675 L199 675 L199 325 L301 325 L301 675 Z M301 175 L199 175 L199 -175 L301 -175 L301 175 Z " />
<glyph glyph-name="section" unicode="&#xa7;" horiz-adv-x="511" d="M446 549 C439 573 429 606 401 633 C366 666 311 679 267 679 C159 679 97 610 97 523 C97 449 136 417 157 399 C130 380 77 342 77 259 C77 159 157 128 229 101 C312 69 355 52 355 -10 C355 -58 325 -95 257 -95 C170 -95 155 -32 149 -5 L59 -21 C67 -58 93 -172 255 -172 C378 -172 452 -97 452 3 C452 88 403 122 375 141 C405 167 446 202 446 276 C446 375 371 406 304 433 C229 464 192 479 192 534 C192 556 203 607 268 607 C337 607 353 557 361 529 L446 549 Z M214 367 C300 329 306 326 321 317 C346 301 359 275 359 252 C359 245 359 208 312 172 C298 178 233 202 221 209 C185 228 166 249 166 284 C166 328 194 351 214 367 L214 367 Z " />
<glyph glyph-name="dieresis" unicode="&#xa8;" horiz-adv-x="500" d="M172 568 C194 568 225 585 225 618 C225 649 198 669 172 669 C146 669 119 649 119 618 C119 584 150 568 172 568 L172 568 Z M328 568 C350 568 381 585 381 618 C381 649 354 669 328 669 C301 669 275 648 275 618 C275 586 305 568 328 568 L328 568 Z " />
<glyph glyph-name="copyright" unicode="&#xa9;" horiz-adv-x="781" d="M466 275 C455 216 439 190 400 190 C338 190 324 262 324 330 C324 402 337 476 399 476 C453 476 460 425 465 387 L544 397 C539 435 523 540 398 540 C264 540 236 421 236 331 C236 262 254 126 397 126 C446 126 475 142 494 158 C533 192 540 240 544 266 L466 275 Z M390 -12 C583 -12 739 142 739 333 C739 523 583 679 390 679 C197 679 42 523 42 333 C42 142 198 -12 390 -12 L390 -12 Z M390 54 C238 54 115 179 115 333 C115 487 238 613 390 613 C542 613 666 487 666 333 C666 179 542 54 390 54 L390 54 Z " />
<glyph glyph-name="ordfeminine" unicode="&#xaa;" horiz-adv-x="511" d="M202 572 C206 586 212 616 251 616 C297 616 296 577 296 548 C222 549 106 539 106 429 C106 359 156 328 210 328 C273 328 298 367 313 388 C315 360 316 354 318 336 L391 336 C382 361 382 403 382 432 L382 540 C382 596 382 679 257 679 C239 679 208 677 180 662 C132 639 124 605 118 581 L202 572 Z M196 433 C196 502 278 495 296 492 C296 461 296 391 235 391 C204 391 196 411 196 433 L196 433 Z " />
<glyph glyph-name="guillemotleft" unicode="&#xab;" horiz-adv-x="392" d="M348 97 L295 256 L348 416 L291 416 L197 256 L291 97 L348 97 Z M195 100 L142 256 L195 412 L138 412 L44 256 L138 100 L195 100 Z " />
<glyph glyph-name="logicalnot" unicode="&#xac;" horiz-adv-x="511" d="M375 224 L460 224 L460 442 L51 442 L51 361 L375 361 L375 224 Z " />
<glyph glyph-name="uni00AD" unicode="&#xad;" horiz-adv-x="290" d="M39 291 L39 209 L250 209 L250 291 L39 291 Z " />
<glyph glyph-name="registered" unicode="&#xae;" horiz-adv-x="511" d="M184 580 L184 360 L232 360 L232 450 L261 450 L295 360 L347 360 L303 461 C312 464 341 478 341 517 C341 580 277 580 259 580 L184 580 Z M258 548 C268 548 292 548 292 517 C292 499 284 482 258 482 L232 482 L232 548 L258 548 Z M256 667 C146 667 56 578 56 466 C56 355 147 267 256 267 C363 267 455 354 455 466 C455 579 364 667 256 667 L256 667 Z M256 622 C339 622 407 553 407 466 C407 381 339 312 256 312 C173 312 104 381 104 466 C104 553 172 622 256 622 L256 622 Z " />
<glyph glyph-name="macron" unicode="&#xaf;" horiz-adv-x="500" d="M115 650 L115 586 L385 586 L385 650 L115 650 Z " />
<glyph glyph-name="degree" unicode="&#xb0;" horiz-adv-x="511" d="M256 679 C170 679 100 611 100 523 C100 436 170 367 256 367 C341 367 411 436 411 523 C411 610 341 679 256 679 L256 679 Z M256 613 C298 613 333 573 333 523 C333 472 298 433 256 433 C214 433 178 472 178 523 C178 573 213 613 256 613 L256 613 Z " />
<glyph glyph-name="plusminus" unicode="&#xb1;" horiz-adv-x="511" d="M298 374 L298 538 L213 538 L213 374 L51 374 L51 293 L213 293 L213 134 L298 134 L298 293 L460 293 L460 374 L298 374 Z M460 5 L460 86 L51 86 L51 5 L460 5 Z " />
<glyph glyph-name="twosuperior" unicode="&#xb2;" horiz-adv-x="341" d="M99 528 C102 552 108 608 160 608 C197 608 211 579 211 550 C211 523 198 498 184 481 C142 427 64 365 24 332 L24 267 L297 267 L301 337 L121 337 C176 372 217 410 225 418 C253 444 298 489 298 554 C298 614 257 674 165 674 C49 674 29 578 22 543 L99 528 Z " />
<glyph glyph-name="threesuperior" unicode="&#xb3;" horiz-adv-x="341" d="M98 553 C104 577 114 612 158 612 C177 612 208 607 208 557 C208 503 165 503 140 503 L107 503 L107 445 L140 445 C172 445 216 441 216 385 C216 335 180 324 157 324 C102 324 93 369 88 391 L14 375 C20 346 37 260 160 260 C246 260 304 308 304 381 C304 453 251 471 231 478 C251 488 292 507 292 565 C292 630 245 674 165 674 C56 674 33 597 25 569 L98 553 Z " />
<glyph glyph-name="acute" unicode="&#xb4;" horiz-adv-x="500" d="M202 590 L239 552 L411 660 L358 727 L202 590 Z " />
<glyph glyph-name="mu" unicode="&#xb5;" horiz-adv-x="460" d="M298 493 L298 256 C298 187 297 138 286 110 C276 87 257 70 228 70 C201 70 182 86 172 110 C160 137 159 177 159 256 L159 493 L57 493 L57 -167 L151 -167 L151 74 C158 41 171 -12 228 -12 C286 -12 298 41 306 74 L306 0 L400 0 L400 493 L298 493 Z " />
<glyph glyph-name="paragraph" unicode="&#xb6;" horiz-adv-x="528" d="M451 667 L233 667 C200 667 137 667 96 639 C44 602 24 534 24 474 C24 425 38 354 86 315 C132 280 181 280 230 280 L267 280 L267 -167 L334 -167 L334 600 L384 600 L384 -167 L451 -167 L451 667 Z " />
<glyph glyph-name="periodcentered" unicode="&#xb7;" horiz-adv-x="239" d="M64 320 L64 194 L175 194 L175 320 L64 320 Z " />
<glyph glyph-name="cedilla" unicode="&#xb8;" horiz-adv-x="500" d="M235 -1 L206 -83 C247 -82 296 -80 296 -121 C296 -142 277 -151 256 -151 C225 -151 199 -140 183 -133 L169 -169 C189 -180 220 -199 265 -199 C328 -199 365 -162 365 -118 C365 -100 358 -66 318 -52 C300 -46 285 -46 267 -47 L283 0 L235 -1 Z " />
<glyph glyph-name="onesuperior" unicode="&#xb9;" horiz-adv-x="341" d="M170 671 C130 623 94 605 75 595 L75 521 C110 538 122 546 150 570 L150 328 L77 328 L77 267 L299 267 L299 328 L231 328 L231 671 L170 671 Z " />
<glyph glyph-name="ordmasculine" unicode="&#xba;" horiz-adv-x="511" d="M256 679 C137 679 115 580 115 503 C115 418 142 328 255 328 C366 328 396 413 396 507 C396 588 368 679 256 679 L256 679 Z M256 624 C295 624 312 583 312 503 C312 415 292 383 255 383 C215 383 199 423 199 503 C199 573 211 624 256 624 L256 624 Z " />
<glyph glyph-name="guillemotright" unicode="&#xbb;" horiz-adv-x="392" d="M44 416 L96 256 L44 97 L101 97 L195 256 L101 416 L44 416 Z M197 416 L250 256 L197 97 L254 97 L348 256 L254 416 L197 416 Z " />
<glyph glyph-name="onequarter" unicode="&#xbc;" horiz-adv-x="767" d="M496 150 L598 334 L598 150 L496 150 Z M510 667 L185 0 L256 0 L581 667 L510 667 Z M584 407 L429 148 L429 93 L593 93 L593 0 L675 0 L675 93 L727 93 L727 155 L675 155 L675 407 L584 407 Z M162 671 C122 623 86 605 67 595 L67 521 C102 538 114 546 142 570 L142 328 L69 328 L69 267 L291 267 L291 328 L223 328 L223 671 L162 671 Z " />
<glyph glyph-name="onehalf" unicode="&#xbd;" horiz-adv-x="767" d="M150 671 C110 623 74 605 55 595 L55 521 C90 538 102 546 130 570 L130 328 L57 328 L57 267 L279 267 L279 328 L211 328 L211 671 L150 671 Z M497 667 L172 0 L243 0 L569 667 L497 667 Z M506 262 C509 286 515 341 567 341 C608 341 618 306 618 283 C618 256 604 231 591 214 C552 163 484 108 430 65 L430 0 L704 0 L708 70 L528 70 C583 105 624 143 632 151 C656 173 705 220 705 287 C705 343 668 407 572 407 C455 407 436 311 429 276 L506 262 Z " />
<glyph glyph-name="threequarters" unicode="&#xbe;" horiz-adv-x="767" d="M502 150 L604 334 L604 150 L502 150 Z M530 667 L204 0 L275 0 L601 667 L530 667 Z M590 407 L435 148 L435 93 L599 93 L599 0 L681 0 L681 93 L733 93 L733 155 L681 155 L681 407 L590 407 Z M114 553 C121 577 131 612 175 612 C194 612 225 607 225 557 C225 503 182 503 157 503 L124 503 L124 445 L156 445 C188 445 232 441 232 385 C232 335 196 324 173 324 C118 324 109 369 104 391 L30 375 C36 346 53 260 176 260 C262 260 320 308 320 381 C320 453 267 471 247 478 C268 488 309 507 309 565 C309 630 262 674 182 674 C73 674 50 597 42 569 L114 553 Z " />
<glyph glyph-name="questiondown" unicode="&#xbf;" horiz-adv-x="494" d="M361 39 C359 3 352 -99 259 -99 C212 -99 173 -72 173 -6 C173 62 202 87 268 143 C316 184 317 224 318 315 L226 315 C228 241 225 228 162 177 C114 137 62 90 62 -4 C62 -102 123 -186 254 -186 C361 -186 443 -129 456 21 L361 39 Z M326 373 L326 493 L217 493 L217 373 L326 373 Z " />
<glyph glyph-name="Agrave" unicode="&#xc0;" horiz-adv-x="494" d="M189 667 L-4 0 L102 0 L143 167 L337 167 L379 0 L491 0 L313 667 L189 667 Z M164 254 L240 560 L315 254 L164 254 Z M298 774 L106 869 L71 788 L271 726 L298 774 Z " />
<glyph glyph-name="Aacute" unicode="&#xc1;" horiz-adv-x="494" d="M189 667 L-4 0 L102 0 L143 167 L337 167 L379 0 L491 0 L313 667 L189 667 Z M164 254 L240 560 L315 254 L164 254 Z M174 774 L201 726 L401 788 L366 869 L174 774 Z " />
<glyph glyph-name="Acircumflex" unicode="&#xc2;" horiz-adv-x="494" d="M189 667 L-4 0 L102 0 L143 167 L337 167 L379 0 L491 0 L313 667 L189 667 Z M164 254 L240 560 L315 254 L164 254 Z M70 733 L160 726 L250 776 L340 726 L430 733 L250 860 L70 733 Z " />
<glyph glyph-name="Atilde" unicode="&#xc3;" horiz-adv-x="494" d="M189 667 L-4 0 L102 0 L143 167 L337 167 L379 0 L491 0 L313 667 L189 667 Z M164 254 L240 560 L315 254 L164 254 Z M356 834 C347 820 334 799 309 799 C294 799 282 804 268 810 C213 833 207 836 185 836 C154 836 120 825 79 763 L123 734 C137 753 150 768 173 768 C185 768 197 765 227 751 C263 734 278 731 294 731 C353 731 387 783 401 805 L356 834 Z " />
<glyph glyph-name="Adieresis" unicode="&#xc4;" horiz-adv-x="494" d="M189 667 L-4 0 L102 0 L143 167 L337 167 L379 0 L491 0 L313 667 L189 667 Z M164 254 L240 560 L315 254 L164 254 Z M170 733 C195 733 225 752 225 785 C225 814 200 837 170 837 C143 837 115 816 115 784 C115 750 147 733 170 733 L170 733 Z M330 733 C353 733 385 750 385 784 C385 815 358 837 330 837 C301 837 275 815 275 785 C275 751 306 733 330 733 L330 733 Z " />
<glyph glyph-name="Aring" unicode="&#xc5;" horiz-adv-x="494" d="M189 667 L-4 0 L102 0 L143 167 L337 167 L379 0 L491 0 L313 667 L189 667 Z M164 254 L240 560 L315 254 L164 254 Z M250 709 C290 709 344 741 344 802 C344 860 299 898 250 898 C201 898 156 859 156 803 C156 740 210 709 250 709 L250 709 Z M250 759 C231 759 207 774 207 803 C207 831 230 848 250 848 C270 848 293 831 293 803 C293 775 270 759 250 759 L250 759 Z " />
<glyph glyph-name="AE" unicode="&#xc6;" horiz-adv-x="698" d="M689 90 L420 90 L420 299 L630 299 L630 387 L420 387 L420 579 L688 579 L688 667 L263 667 L-40 0 L60 0 L139 182 L313 182 L313 0 L689 0 L689 90 Z M314 268 L174 268 L314 595 L314 268 Z " />
<glyph glyph-name="Ccedilla" unicode="&#xc7;" horiz-adv-x="528" d="M501 451 C494 508 470 679 284 679 C63 679 42 436 42 331 C42 254 53 134 124 53 C162 8 215 -3 241 -9 L215 -89 C224 -89 263 -90 273 -92 C281 -94 305 -101 305 -127 C305 -145 291 -157 266 -157 C235 -157 209 -146 191 -139 L177 -176 C197 -188 229 -208 276 -208 C346 -208 379 -165 379 -124 C379 -110 374 -71 329 -56 C309 -49 292 -50 277 -51 L289 -12 C312 -11 375 -9 428 41 C485 96 496 179 501 210 L399 224 C383 127 355 79 287 79 C181 79 159 208 159 328 C159 434 172 588 287 588 C378 588 391 493 399 437 L501 451 Z " />
<glyph glyph-name="Egrave" unicode="&#xc8;" horiz-adv-x="460" d="M64 667 L64 0 L450 0 L450 90 L174 90 L174 299 L387 299 L387 387 L174 387 L174 579 L445 579 L445 667 L64 667 Z M318 774 L126 869 L91 788 L291 726 L318 774 Z " />
<glyph glyph-name="Eacute" unicode="&#xc9;" horiz-adv-x="460" d="M64 667 L64 0 L450 0 L450 90 L174 90 L174 299 L387 299 L387 387 L174 387 L174 579 L445 579 L445 667 L64 667 Z M189 774 L216 726 L416 788 L381 869 L189 774 Z " />
<glyph glyph-name="Ecircumflex" unicode="&#xca;" horiz-adv-x="460" d="M64 667 L64 0 L450 0 L450 90 L174 90 L174 299 L387 299 L387 387 L174 387 L174 579 L445 579 L445 667 L64 667 Z M55 733 L145 726 L235 776 L325 726 L415 733 L235 860 L55 733 Z " />
<glyph glyph-name="Edieresis" unicode="&#xcb;" horiz-adv-x="460" d="M64 667 L64 0 L450 0 L450 90 L174 90 L174 299 L387 299 L387 387 L174 387 L174 579 L445 579 L445 667 L64 667 Z M170 733 C195 733 225 752 225 785 C225 814 200 837 170 837 C143 837 115 816 115 784 C115 750 147 733 170 733 L170 733 Z M330 733 C353 733 385 750 385 784 C385 815 358 837 330 837 C301 837 275 815 275 785 C275 751 306 733 330 733 L330 733 Z " />
<glyph glyph-name="Igrave" unicode="&#xcc;" horiz-adv-x="239" d="M64 667 L64 0 L174 0 L174 667 L64 667 Z M178 774 L-14 869 L-49 788 L151 726 L178 774 Z " />
<glyph glyph-name="Iacute" unicode="&#xcd;" horiz-adv-x="239" d="M64 667 L64 0 L174 0 L174 667 L64 667 Z M69 774 L96 726 L296 788 L261 869 L69 774 Z " />
<glyph glyph-name="Icircumflex" unicode="&#xce;" horiz-adv-x="239" d="M64 667 L64 0 L174 0 L174 667 L64 667 Z M-65 733 L25 726 L115 776 L205 726 L295 733 L115 860 L-65 733 Z " />
<glyph glyph-name="Idieresis" unicode="&#xcf;" horiz-adv-x="239" d="M64 667 L64 0 L174 0 L174 667 L64 667 Z M40 733 C65 733 95 752 95 785 C95 814 70 837 40 837 C13 837 -15 816 -15 784 C-15 750 17 733 40 733 L40 733 Z M200 733 C223 733 255 750 255 784 C255 815 228 837 200 837 C171 837 145 815 145 785 C145 751 176 733 200 733 L200 733 Z " />
<glyph glyph-name="Eth" unicode="&#xd0;" horiz-adv-x="562" d="M7 299 L64 299 L64 0 L222 0 C283 0 347 10 394 43 C468 95 520 199 520 339 C520 429 499 518 441 585 C378 658 277 667 214 667 L64 667 L64 387 L7 387 L7 299 Z M174 299 L297 299 L297 387 L174 387 L174 579 L220 579 C362 579 403 464 403 333 C403 289 399 188 337 128 C318 109 283 88 220 88 L174 88 L174 299 Z " />
<glyph glyph-name="Ntilde" unicode="&#xd1;" horiz-adv-x="562" d="M60 667 L60 0 L152 0 L152 534 L399 0 L502 0 L502 667 L410 667 L410 186 L190 667 L60 667 Z M406 834 C397 820 384 799 359 799 C344 799 332 804 318 810 C263 833 257 836 235 836 C204 836 170 825 129 763 L173 734 C187 753 200 768 223 768 C235 768 247 765 277 751 C313 734 328 731 344 731 C403 731 437 783 451 805 L406 834 Z " />
<glyph glyph-name="Ograve" unicode="&#xd2;" horiz-adv-x="562" d="M282 679 C82 679 42 486 42 333 C42 178 83 -12 283 -12 C490 -12 521 196 521 333 C521 489 481 679 282 679 L282 679 Z M282 588 C340 588 363 553 378 520 C402 464 405 379 405 333 C405 297 403 206 378 147 C363 113 339 79 283 79 C230 79 204 104 185 147 C161 204 158 293 158 333 C158 374 160 463 185 520 C201 556 225 588 282 588 L282 588 Z M338 774 L146 869 L111 788 L311 726 L338 774 Z " />
<glyph glyph-name="Oacute" unicode="&#xd3;" horiz-adv-x="562" d="M282 679 C82 679 42 486 42 333 C42 178 83 -12 283 -12 C490 -12 521 196 521 333 C521 489 481 679 282 679 L282 679 Z M282 588 C340 588 363 553 378 520 C402 464 405 379 405 333 C405 297 403 206 378 147 C363 113 339 79 283 79 C230 79 204 104 185 147 C161 204 158 293 158 333 C158 374 160 463 185 520 C201 556 225 588 282 588 L282 588 Z M229 774 L256 726 L456 788 L421 869 L229 774 Z " />
<glyph glyph-name="Ocircumflex" unicode="&#xd4;" horiz-adv-x="562" d="M282 679 C82 679 42 486 42 333 C42 178 83 -12 283 -12 C490 -12 521 196 521 333 C521 489 481 679 282 679 L282 679 Z M282 588 C340 588 363 553 378 520 C402 464 405 379 405 333 C405 297 403 206 378 147 C363 113 339 79 283 79 C230 79 204 104 185 147 C161 204 158 293 158 333 C158 374 160 463 185 520 C201 556 225 588 282 588 L282 588 Z M100 733 L190 726 L280 776 L370 726 L460 733 L280 860 L100 733 Z " />
<glyph glyph-name="Otilde" unicode="&#xd5;" horiz-adv-x="562" d="M282 679 C82 679 42 486 42 333 C42 178 83 -12 283 -12 C490 -12 521 196 521 333 C521 489 481 679 282 679 L282 679 Z M282 588 C340 588 363 553 378 520 C402 464 405 379 405 333 C405 297 403 206 378 147 C363 113 339 79 283 79 C230 79 204 104 185 147 C161 204 158 293 158 333 C158 374 160 463 185 520 C201 556 225 588 282 588 L282 588 Z M396 834 C387 820 374 799 349 799 C334 799 322 804 308 810 C253 833 247 836 225 836 C194 836 160 825 119 763 L163 734 C177 753 190 768 213 768 C225 768 237 765 267 751 C303 734 318 731 334 731 C393 731 427 783 441 805 L396 834 Z " />
<glyph glyph-name="Odieresis" unicode="&#xd6;" horiz-adv-x="562" d="M282 679 C82 679 42 486 42 333 C42 178 83 -12 283 -12 C490 -12 521 196 521 333 C521 489 481 679 282 679 L282 679 Z M282 588 C340 588 363 553 378 520 C402 464 405 379 405 333 C405 297 403 206 378 147 C363 113 339 79 283 79 C230 79 204 104 185 147 C161 204 158 293 158 333 C158 374 160 463 185 520 C201 556 225 588 282 588 L282 588 Z M200 733 C225 733 255 752 255 785 C255 814 230 837 200 837 C173 837 145 816 145 784 C145 750 177 733 200 733 L200 733 Z M360 733 C383 733 415 750 415 784 C415 815 388 837 360 837 C331 837 305 815 305 785 C305 751 336 733 360 733 L360 733 Z " />
<glyph glyph-name="multiply" unicode="&#xd7;" horiz-adv-x="511" d="M255 394 L134 515 L74 455 L195 333 L74 212 L134 152 L255 273 L377 152 L437 212 L316 333 L437 455 L377 515 L255 394 Z " />
<glyph glyph-name="Oslash" unicode="&#xd8;" horiz-adv-x="562" d="M434 704 L406 644 C388 655 348 679 281 679 C78 679 44 470 44 336 C44 294 47 144 114 65 L62 -40 L132 -40 L162 21 C196 -2 243 -12 281 -12 C472 -12 518 166 518 333 C518 411 508 522 451 599 L504 704 L434 704 Z M170 162 C160 193 151 240 151 331 C151 353 151 460 179 524 C198 566 226 593 282 593 C326 593 347 578 359 568 L170 162 Z M394 497 C410 445 411 369 411 333 C411 252 401 205 396 181 C375 94 326 74 280 74 C238 74 217 88 208 95 L394 497 Z " />
<glyph glyph-name="Ugrave" unicode="&#xd9;" horiz-adv-x="545" d="M59 667 L59 253 C59 135 62 -12 272 -12 C350 -12 391 10 417 29 C484 79 486 163 486 260 L486 667 L387 667 L387 255 C387 159 387 79 278 79 C167 79 167 164 167 253 L167 667 L59 667 Z M318 774 L126 869 L91 788 L291 726 L318 774 Z " />
<glyph glyph-name="Uacute" unicode="&#xda;" horiz-adv-x="545" d="M59 667 L59 253 C59 135 62 -12 272 -12 C350 -12 391 10 417 29 C484 79 486 163 486 260 L486 667 L387 667 L387 255 C387 159 387 79 278 79 C167 79 167 164 167 253 L167 667 L59 667 Z M229 774 L256 726 L456 788 L421 869 L229 774 Z " />
<glyph glyph-name="Ucircumflex" unicode="&#xdb;" horiz-adv-x="545" d="M59 667 L59 253 C59 135 62 -12 272 -12 C350 -12 391 10 417 29 C484 79 486 163 486 260 L486 667 L387 667 L387 255 C387 159 387 79 278 79 C167 79 167 164 167 253 L167 667 L59 667 Z M95 733 L185 726 L275 776 L365 726 L455 733 L275 860 L95 733 Z " />
<glyph glyph-name="Udieresis" unicode="&#xdc;" horiz-adv-x="545" d="M59 667 L59 253 C59 135 62 -12 272 -12 C350 -12 391 10 417 29 C484 79 486 163 486 260 L486 667 L387 667 L387 255 C387 159 387 79 278 79 C167 79 167 164 167 253 L167 667 L59 667 Z M200 733 C225 733 255 752 255 785 C255 814 230 837 200 837 C173 837 145 816 145 784 C145 750 177 733 200 733 L200 733 Z M360 733 C383 733 415 750 415 784 C415 815 388 837 360 837 C331 837 305 815 305 785 C305 751 336 733 360 733 L360 733 Z " />
<glyph glyph-name="Yacute" unicode="&#xdd;" horiz-adv-x="409" d="M-31 667 L146 282 L146 0 L256 0 L256 282 L441 667 L335 667 L211 389 L89 667 L-31 667 Z M169 774 L196 726 L396 788 L361 869 L169 774 Z " />
<glyph glyph-name="Thorn" unicode="&#xde;" horiz-adv-x="494" d="M64 667 L64 0 L174 0 L174 157 L231 157 C276 157 348 157 398 192 C459 234 474 311 474 359 C474 405 462 464 420 508 C373 558 305 563 229 563 L174 563 L174 667 L64 667 Z M229 478 C276 478 310 478 335 443 C355 414 358 383 358 362 C358 245 280 245 229 245 L174 245 L174 478 L229 478 Z " />
<glyph glyph-name="germandbls" unicode="&#xdf;" horiz-adv-x="511" d="M8 366 L66 366 L66 -46 L168 -46 L168 450 C168 507 168 552 186 583 C205 617 233 626 258 626 C307 626 338 594 338 547 C338 475 252 457 217 450 C211 434 204 413 204 390 C204 337 241 306 303 271 C360 240 399 218 399 156 C399 103 369 65 317 65 C283 65 258 75 243 81 L218 6 C239 -1 271 -12 315 -12 C435 -12 495 74 495 171 C495 285 409 328 345 358 C290 384 285 390 276 406 C369 428 436 476 436 558 C436 634 376 700 272 700 C244 700 157 694 106 622 C65 564 66 497 66 448 L8 448 L8 366 Z " />
<glyph glyph-name="agrave" unicode="&#xe0;" horiz-adv-x="460" d="M151 353 C155 374 166 430 231 430 C304 430 304 360 304 324 L304 304 C233 306 179 298 137 284 C78 264 35 209 35 130 C35 39 93 -12 173 -12 C261 -12 293 47 312 82 C312 36 314 24 319 0 L414 0 C406 34 406 95 406 137 L406 304 C406 357 406 418 375 452 C352 479 310 505 239 505 C193 505 76 493 53 366 L151 353 Z M304 216 C304 107 250 63 207 63 C173 63 141 78 141 137 C141 183 156 242 274 242 C281 242 288 242 304 241 L304 216 Z M305 590 L149 727 L96 660 L268 552 L305 590 Z " />
<glyph glyph-name="aacute" unicode="&#xe1;" horiz-adv-x="460" d="M151 353 C155 374 166 430 231 430 C304 430 304 360 304 324 L304 304 C233 306 179 298 137 284 C78 264 35 209 35 130 C35 39 93 -12 173 -12 C261 -12 293 47 312 82 C312 36 314 24 319 0 L414 0 C406 34 406 95 406 137 L406 304 C406 357 406 418 375 452 C352 479 310 505 239 505 C193 505 76 493 53 366 L151 353 Z M304 216 C304 107 250 63 207 63 C173 63 141 78 141 137 C141 183 156 242 274 242 C281 242 288 242 304 241 L304 216 Z M182 590 L219 552 L391 660 L338 727 L182 590 Z " />
<glyph glyph-name="acircumflex" unicode="&#xe2;" horiz-adv-x="460" d="M151 353 C155 374 166 430 231 430 C304 430 304 360 304 324 L304 304 C233 306 179 298 137 284 C78 264 35 209 35 130 C35 39 93 -12 173 -12 C261 -12 293 47 312 82 C312 36 314 24 319 0 L414 0 C406 34 406 95 406 137 L406 304 C406 357 406 418 375 452 C352 479 310 505 239 505 C193 505 76 493 53 366 L151 353 Z M304 216 C304 107 250 63 207 63 C173 63 141 78 141 137 C141 183 156 242 274 242 C281 242 288 242 304 241 L304 216 Z M56 563 L142 556 L230 615 L318 556 L404 563 L230 697 L56 563 Z " />
<glyph glyph-name="atilde" unicode="&#xe3;" horiz-adv-x="460" d="M151 353 C155 374 166 430 231 430 C304 430 304 360 304 324 L304 304 C233 306 179 298 137 284 C78 264 35 209 35 130 C35 39 93 -12 173 -12 C261 -12 293 47 312 82 C312 36 314 24 319 0 L414 0 C406 34 406 95 406 137 L406 304 C406 357 406 418 375 452 C352 479 310 505 239 505 C193 505 76 493 53 366 L151 353 Z M304 216 C304 107 250 63 207 63 C173 63 141 78 141 137 C141 183 156 242 274 242 C281 242 288 242 304 241 L304 216 Z M339 669 C330 653 317 632 295 632 C283 632 270 636 241 653 C209 670 197 674 178 674 C139 674 110 651 79 600 L120 572 C134 591 146 608 168 608 C179 608 190 604 218 588 C251 569 265 566 281 566 C336 566 367 618 381 641 L339 669 Z " />
<glyph glyph-name="adieresis" unicode="&#xe4;" horiz-adv-x="460" d="M151 353 C155 374 166 430 231 430 C304 430 304 360 304 324 L304 304 C233 306 179 298 137 284 C78 264 35 209 35 130 C35 39 93 -12 173 -12 C261 -12 293 47 312 82 C312 36 314 24 319 0 L414 0 C406 34 406 95 406 137 L406 304 C406 357 406 418 375 452 C352 479 310 505 239 505 C193 505 76 493 53 366 L151 353 Z M304 216 C304 107 250 63 207 63 C173 63 141 78 141 137 C141 183 156 242 274 242 C281 242 288 242 304 241 L304 216 Z M152 568 C174 568 205 585 205 618 C205 649 178 669 152 669 C126 669 99 649 99 618 C99 584 130 568 152 568 L152 568 Z M308 568 C330 568 361 585 361 618 C361 649 334 669 308 669 C281 669 255 648 255 618 C255 586 285 568 308 568 L308 568 Z " />
<glyph glyph-name="aring" unicode="&#xe5;" horiz-adv-x="460" d="M151 353 C155 374 166 430 231 430 C304 430 304 360 304 324 L304 304 C233 306 179 298 137 284 C78 264 35 209 35 130 C35 39 93 -12 173 -12 C261 -12 293 47 312 82 C312 36 314 24 319 0 L414 0 C406 34 406 95 406 137 L406 304 C406 357 406 418 375 452 C352 479 310 505 239 505 C193 505 76 493 53 366 L151 353 Z M304 216 C304 107 250 63 207 63 C173 63 141 78 141 137 C141 183 156 242 274 242 C281 242 288 242 304 241 L304 216 Z M230 544 C270 544 322 576 322 635 C322 689 278 728 230 728 C182 728 138 690 138 635 C138 575 191 544 230 544 L230 544 Z M230 593 C211 593 188 608 188 636 C188 662 210 679 230 679 C252 679 272 661 272 635 C272 609 250 593 230 593 L230 593 Z " />
<glyph glyph-name="ae" unicode="&#xe6;" horiz-adv-x="698" d="M674 231 C673 278 672 328 650 387 C632 436 578 503 494 503 C414 503 379 464 362 445 C353 457 345 469 324 482 C305 494 277 505 231 505 C212 505 171 503 133 483 C67 449 56 390 52 365 L145 352 C149 373 160 431 226 431 C302 431 300 359 299 305 C237 305 187 302 138 286 C76 265 35 206 35 132 C35 64 72 -12 180 -12 C283 -12 322 50 341 81 C356 52 390 -12 491 -12 C631 -12 658 100 668 144 L577 156 C569 123 556 65 492 65 C396 65 397 183 397 231 L674 231 Z M399 300 C403 367 425 431 487 431 C567 431 569 329 570 300 L399 300 Z M299 241 C307 63 213 63 203 63 C139 63 139 123 139 138 C139 194 164 243 271 243 C278 243 284 243 299 241 L299 241 Z " />
<glyph glyph-name="ccedilla" unicode="&#xe7;" horiz-adv-x="409" d="M402 327 C394 380 376 505 229 505 C66 505 35 359 35 245 C35 185 44 102 89 45 C97 35 121 5 184 -9 L157 -83 C198 -82 248 -80 248 -120 C248 -140 233 -151 208 -151 C176 -151 151 -140 134 -132 L120 -169 C140 -180 171 -199 217 -199 C279 -199 317 -163 317 -118 C317 -96 307 -64 269 -52 C252 -45 236 -46 218 -47 L230 -12 C363 -3 389 77 402 170 L304 178 C300 137 293 72 230 72 C142 72 142 192 142 236 C142 355 159 424 229 424 C287 424 296 375 304 317 L402 327 Z " />
<glyph glyph-name="egrave" unicode="&#xe8;" horiz-adv-x="443" d="M418 231 C417 291 416 352 382 419 C362 458 313 505 233 505 C123 505 36 421 36 239 C36 110 86 -12 232 -12 C377 -12 405 107 414 144 L322 157 C314 122 301 65 235 65 C140 65 140 176 140 231 L418 231 Z M142 300 C147 367 168 430 230 430 C250 430 290 420 306 370 C315 341 315 319 315 300 L142 300 Z M297 590 L141 727 L88 660 L260 552 L297 590 Z " />
<glyph glyph-name="eacute" unicode="&#xe9;" horiz-adv-x="443" d="M418 231 C417 291 416 352 382 419 C362 458 313 505 233 505 C123 505 36 421 36 239 C36 110 86 -12 232 -12 C377 -12 405 107 414 144 L322 157 C314 122 301 65 235 65 C140 65 140 176 140 231 L418 231 Z M142 300 C147 367 168 430 230 430 C250 430 290 420 306 370 C315 341 315 319 315 300 L142 300 Z M174 590 L211 552 L383 660 L330 727 L174 590 Z " />
<glyph glyph-name="ecircumflex" unicode="&#xea;" horiz-adv-x="443" d="M418 231 C417 291 416 352 382 419 C362 458 313 505 233 505 C123 505 36 421 36 239 C36 110 86 -12 232 -12 C377 -12 405 107 414 144 L322 157 C314 122 301 65 235 65 C140 65 140 176 140 231 L418 231 Z M142 300 C147 367 168 430 230 430 C250 430 290 420 306 370 C315 341 315 319 315 300 L142 300 Z M48 563 L134 556 L222 615 L310 556 L396 563 L222 697 L48 563 Z " />
<glyph glyph-name="edieresis" unicode="&#xeb;" horiz-adv-x="443" d="M418 231 C417 291 416 352 382 419 C362 458 313 505 233 505 C123 505 36 421 36 239 C36 110 86 -12 232 -12 C377 -12 405 107 414 144 L322 157 C314 122 301 65 235 65 C140 65 140 176 140 231 L418 231 Z M142 300 C147 367 168 430 230 430 C250 430 290 420 306 370 C315 341 315 319 315 300 L142 300 Z M144 568 C166 568 197 585 197 618 C197 649 170 669 144 669 C118 669 91 649 91 618 C91 584 122 568 144 568 L144 568 Z M300 568 C322 568 353 585 353 618 C353 649 326 669 300 669 C273 669 247 648 247 618 C247 586 277 568 300 568 L300 568 Z " />
<glyph glyph-name="igrave" unicode="&#xec;" horiz-adv-x="222" d="M60 493 L60 0 L162 0 L162 493 L60 493 Z M186 590 L30 727 L-23 660 L149 552 L186 590 Z " />
<glyph glyph-name="iacute" unicode="&#xed;" horiz-adv-x="222" d="M60 493 L60 0 L162 0 L162 493 L60 493 Z M63 590 L100 552 L272 660 L219 727 L63 590 Z " />
<glyph glyph-name="icircumflex" unicode="&#xee;" horiz-adv-x="222" d="M60 493 L60 0 L162 0 L162 493 L60 493 Z M-63 563 L23 556 L111 615 L199 556 L285 563 L111 697 L-63 563 Z " />
<glyph glyph-name="idieresis" unicode="&#xef;" horiz-adv-x="222" d="M60 493 L60 0 L162 0 L162 493 L60 493 Z M33 568 C55 568 86 585 86 618 C86 649 59 669 33 669 C7 669 -20 649 -20 618 C-20 584 11 568 33 568 L33 568 Z M189 568 C211 568 242 585 242 618 C242 649 215 669 189 669 C162 669 136 648 136 618 C136 586 166 568 189 568 L189 568 Z " />
<glyph glyph-name="eth" unicode="&#xf0;" horiz-adv-x="443" d="M135 247 C135 366 159 428 221 428 C280 428 308 375 308 247 C308 115 278 65 222 65 C164 65 135 117 135 247 L135 247 Z M420 677 L389 733 L274 673 C265 687 257 700 248 713 L166 670 C175 656 184 642 192 630 L88 575 L119 519 L224 574 C241 544 255 513 266 480 C250 492 233 505 196 505 C143 505 27 469 27 247 C27 119 67 -12 220 -12 C391 -12 416 144 416 240 C416 374 371 503 307 618 L420 677 Z " />
<glyph glyph-name="ntilde" unicode="&#xf1;" horiz-adv-x="460" d="M60 0 L162 0 L162 276 C162 327 162 423 242 423 C301 423 301 376 301 312 L301 0 L403 0 L403 318 C403 367 402 413 386 444 C359 497 308 505 276 505 C191 505 166 444 154 417 L154 493 L60 493 L60 0 Z M339 669 C330 653 317 632 295 632 C283 632 270 636 241 653 C209 670 197 674 178 674 C139 674 110 651 79 600 L120 572 C134 591 146 608 168 608 C179 608 190 604 218 588 C251 569 265 566 281 566 C336 566 367 618 381 641 L339 669 Z " />
<glyph glyph-name="ograve" unicode="&#xf2;" horiz-adv-x="460" d="M231 505 C69 505 36 366 36 247 C36 119 76 -12 229 -12 C397 -12 424 137 424 252 C424 372 385 505 231 505 L231 505 Z M230 428 C288 428 316 374 316 247 C316 115 287 65 230 65 C173 65 144 117 144 246 C144 366 168 428 230 428 L230 428 Z M305 590 L149 727 L96 660 L268 552 L305 590 Z " />
<glyph glyph-name="oacute" unicode="&#xf3;" horiz-adv-x="460" d="M231 505 C69 505 36 366 36 247 C36 119 76 -12 229 -12 C397 -12 424 137 424 252 C424 372 385 505 231 505 L231 505 Z M230 428 C288 428 316 374 316 247 C316 115 287 65 230 65 C173 65 144 117 144 246 C144 366 168 428 230 428 L230 428 Z M182 590 L219 552 L391 660 L338 727 L182 590 Z " />
<glyph glyph-name="ocircumflex" unicode="&#xf4;" horiz-adv-x="460" d="M231 505 C69 505 36 366 36 247 C36 119 76 -12 229 -12 C397 -12 424 137 424 252 C424 372 385 505 231 505 L231 505 Z M230 428 C288 428 316 374 316 247 C316 115 287 65 230 65 C173 65 144 117 144 246 C144 366 168 428 230 428 L230 428 Z M56 563 L142 556 L230 615 L318 556 L404 563 L230 697 L56 563 Z " />
<glyph glyph-name="otilde" unicode="&#xf5;" horiz-adv-x="460" d="M231 505 C69 505 36 366 36 247 C36 119 76 -12 229 -12 C397 -12 424 137 424 252 C424 372 385 505 231 505 L231 505 Z M230 428 C288 428 316 374 316 247 C316 115 287 65 230 65 C173 65 144 117 144 246 C144 366 168 428 230 428 L230 428 Z M339 669 C330 653 317 632 295 632 C283 632 270 636 241 653 C209 670 197 674 178 674 C139 674 110 651 79 600 L120 572 C134 591 146 608 168 608 C179 608 190 604 218 588 C251 569 265 566 281 566 C336 566 367 618 381 641 L339 669 Z " />
<glyph glyph-name="odieresis" unicode="&#xf6;" horiz-adv-x="460" d="M231 505 C69 505 36 366 36 247 C36 119 76 -12 229 -12 C397 -12 424 137 424 252 C424 372 385 505 231 505 L231 505 Z M230 428 C288 428 316 374 316 247 C316 115 287 65 230 65 C173 65 144 117 144 246 C144 366 168 428 230 428 L230 428 Z M152 568 C174 568 205 585 205 618 C205 649 178 669 152 669 C126 669 99 649 99 618 C99 584 130 568 152 568 L152 568 Z M308 568 C330 568 361 585 361 618 C361 649 334 669 308 669 C281 669 255 648 255 618 C255 586 285 568 308 568 L308 568 Z " />
<glyph glyph-name="divide" unicode="&#xf7;" horiz-adv-x="511" d="M460 293 L460 374 L51 374 L51 293 L460 293 Z M305 424 L305 535 L206 535 L206 424 L305 424 Z M305 132 L305 243 L206 243 L206 132 L305 132 Z " />
<glyph glyph-name="oslash" unicode="&#xf8;" horiz-adv-x="460" d="M352 537 L325 483 C311 490 282 505 228 505 C74 505 36 370 36 246 C36 111 79 61 98 38 L53 -52 L112 -52 L141 6 C167 -5 189 -12 229 -12 C395 -12 424 133 424 250 C424 319 412 392 367 448 L411 537 L352 537 Z M147 120 C140 143 132 173 132 246 C132 394 172 432 232 432 C251 432 269 428 285 418 L147 120 Z M316 361 C323 328 328 298 328 246 C328 80 276 60 228 60 C208 60 198 64 181 70 L316 361 Z " />
<glyph glyph-name="ugrave" unicode="&#xf9;" horiz-adv-x="460" d="M57 493 L57 178 C57 96 57 -12 181 -12 C263 -12 288 38 306 74 L306 0 L400 0 L400 493 L298 493 L298 256 C298 165 298 70 216 70 C159 70 159 111 159 180 L159 493 L57 493 Z M305 590 L149 727 L96 660 L268 552 L305 590 Z " />
<glyph glyph-name="uacute" unicode="&#xfa;" horiz-adv-x="460" d="M57 493 L57 178 C57 96 57 -12 181 -12 C263 -12 288 38 306 74 L306 0 L400 0 L400 493 L298 493 L298 256 C298 165 298 70 216 70 C159 70 159 111 159 180 L159 493 L57 493 Z M182 590 L219 552 L391 660 L338 727 L182 590 Z " />
<glyph glyph-name="ucircumflex" unicode="&#xfb;" horiz-adv-x="460" d="M57 493 L57 178 C57 96 57 -12 181 -12 C263 -12 288 38 306 74 L306 0 L400 0 L400 493 L298 493 L298 256 C298 165 298 70 216 70 C159 70 159 111 159 180 L159 493 L57 493 Z M56 563 L142 556 L230 615 L318 556 L404 563 L230 697 L56 563 Z " />
<glyph glyph-name="udieresis" unicode="&#xfc;" horiz-adv-x="460" d="M57 493 L57 178 C57 96 57 -12 181 -12 C263 -12 288 38 306 74 L306 0 L400 0 L400 493 L298 493 L298 256 C298 165 298 70 216 70 C159 70 159 111 159 180 L159 493 L57 493 Z M152 568 C174 568 205 585 205 618 C205 649 178 669 152 669 C126 669 99 649 99 618 C99 584 130 568 152 568 L152 568 Z M308 568 C330 568 361 585 361 618 C361 649 334 669 308 669 C281 669 255 648 255 618 C255 586 285 568 308 568 L308 568 Z " />
<glyph glyph-name="yacute" unicode="&#xfd;" horiz-adv-x="358" d="M0 493 L140 16 C116 -72 104 -92 48 -92 C34 -92 24 -91 12 -89 L12 -171 C28 -174 41 -177 65 -177 C162 -177 184 -108 208 -31 L368 493 L276 493 L188 155 L102 493 L0 493 Z M131 590 L168 552 L340 660 L287 727 L131 590 Z " />
<glyph glyph-name="thorn" unicode="&#xfe;" horiz-adv-x="477" d="M59 667 L59 -167 L160 -167 L161 51 C179 26 205 -9 271 -9 C301 -9 342 -2 374 32 C435 96 442 205 442 254 C442 418 369 502 278 502 C204 502 176 448 160 417 L160 667 L59 667 Z M160 288 C160 353 193 427 251 427 C326 427 334 317 334 251 C334 136 312 68 247 68 C221 68 197 79 179 106 C160 136 160 167 160 206 L160 288 Z " />
<glyph glyph-name="ydieresis" unicode="&#xff;" horiz-adv-x="358" d="M0 493 L140 16 C116 -72 104 -92 48 -92 C34 -92 24 -91 12 -89 L12 -171 C28 -174 41 -177 65 -177 C162 -177 184 -108 208 -31 L368 493 L276 493 L188 155 L102 493 L0 493 Z M101 568 C123 568 154 585 154 618 C154 649 127 669 101 669 C75 669 48 649 48 618 C48 584 79 568 101 568 L101 568 Z M257 568 C279 568 310 585 310 618 C310 649 283 669 257 669 C230 669 204 648 204 618 C204 586 234 568 257 568 L257 568 Z " />
<glyph glyph-name="dotlessi" unicode="&#x131;" horiz-adv-x="222" d="M60 493 L60 0 L162 0 L162 493 L60 493 Z " />
<glyph glyph-name="Lslash" unicode="&#x141;" horiz-adv-x="409" d="M64 667 L64 333 L7 276 L7 174 L64 231 L64 0 L410 0 L410 93 L174 93 L174 304 L291 421 L291 524 L174 406 L174 667 L64 667 Z " />
<glyph glyph-name="lslash" unicode="&#x142;" horiz-adv-x="238" d="M68 667 L68 358 L5 295 L5 213 L68 277 L68 0 L170 0 L170 341 L233 404 L233 486 L170 422 L170 667 L68 667 Z " />
<glyph glyph-name="OE" unicode="&#x152;" horiz-adv-x="801" d="M789 667 L411 667 L411 611 C392 636 358 679 282 679 C227 679 168 658 128 618 C49 539 41 391 41 330 C41 267 52 159 97 89 C151 5 227 -12 277 -12 C356 -12 385 29 408 62 L408 0 L791 0 L791 90 L511 90 L511 299 L729 299 L729 387 L511 387 L511 579 L789 579 L789 667 Z M405 169 C384 111 347 79 291 79 C193 79 158 175 158 319 C158 367 161 479 200 542 C226 584 268 588 289 588 C365 588 389 539 405 507 L405 169 Z " />
<glyph glyph-name="oe" unicode="&#x153;" horiz-adv-x="716" d="M691 231 C690 292 689 353 655 419 C635 458 586 505 507 505 C425 505 390 458 369 431 C337 478 295 505 226 505 C69 505 36 361 36 246 C36 125 73 -12 226 -12 C281 -12 323 5 363 61 C415 -11 479 -12 505 -12 C650 -12 678 107 687 144 L594 157 C586 121 573 65 509 65 C414 65 414 178 414 231 L691 231 Z M229 428 C298 428 313 346 313 246 C313 145 297 65 229 65 C171 65 144 119 144 246 C144 368 169 428 229 428 L229 428 Z M416 300 C421 367 441 430 504 430 C568 430 588 367 587 300 L416 300 Z " />
<glyph glyph-name="Scaron" unicode="&#x160;" horiz-adv-x="511" d="M461 518 C447 564 412 679 255 679 C114 679 50 582 50 491 C50 429 79 382 110 355 C146 324 177 312 251 284 C311 262 365 238 365 175 C365 144 349 79 257 79 C148 79 128 172 121 202 L23 174 C34 129 67 -12 254 -12 C410 -12 478 94 478 190 C478 322 368 364 291 393 C212 424 158 444 158 504 C158 534 178 588 249 588 C318 588 346 547 367 485 L461 518 Z M95 844 L275 718 L455 844 L365 851 L275 801 L185 851 L95 844 Z " />
<glyph glyph-name="scaron" unicode="&#x161;" horiz-adv-x="392" d="M357 378 C348 411 321 505 197 505 C93 505 33 431 33 353 C33 252 120 225 188 203 C230 190 275 176 275 128 C275 110 265 63 198 63 C119 63 107 125 103 148 L16 131 C23 95 42 -12 194 -12 C318 -12 375 68 375 144 C375 244 288 273 229 292 C161 314 130 324 130 369 C130 401 152 430 194 430 C253 430 270 378 277 356 L357 378 Z M22 682 L196 548 L370 682 L284 689 L196 629 L108 689 L22 682 Z " />
<glyph glyph-name="Ydieresis" unicode="&#x178;" horiz-adv-x="409" d="M-31 667 L146 282 L146 0 L256 0 L256 282 L441 667 L335 667 L211 389 L89 667 L-31 667 Z M130 733 C155 733 185 752 185 785 C185 814 160 837 130 837 C103 837 75 816 75 784 C75 750 107 733 130 733 L130 733 Z M290 733 C313 733 345 750 345 784 C345 815 318 837 290 837 C261 837 235 815 235 785 C235 751 266 733 290 733 L290 733 Z " />
<glyph glyph-name="Zcaron" unicode="&#x17d;" horiz-adv-x="426" d="M19 667 L19 577 L293 577 L1 85 L1 0 L426 0 L426 93 L123 93 L419 590 L419 667 L19 667 Z M30 844 L210 718 L390 844 L300 851 L210 801 L120 851 L30 844 Z " />
<glyph glyph-name="zcaron" unicode="&#x17e;" horiz-adv-x="341" d="M32 493 L32 416 L215 416 L15 77 L15 0 L334 0 L334 77 L124 77 L332 431 L332 493 L32 493 Z M-3 682 L171 548 L345 682 L259 689 L171 629 L83 689 L-3 682 Z " />
<glyph glyph-name="florin" unicode="&#x192;" horiz-adv-x="511" d="M302 460 C319 554 330 596 400 596 C416 596 422 594 430 592 L443 674 C428 678 410 680 387 680 C245 680 225 569 205 460 L125 460 L113 378 L192 378 L143 68 C126 -38 111 -61 49 -61 C38 -61 31 -60 19 -59 L6 -144 C20 -146 34 -149 55 -149 C198 -149 222 -47 239 61 L289 378 L391 378 L403 460 L302 460 Z " />
<glyph glyph-name="circumflex" unicode="&#x2c6;" horiz-adv-x="500" d="M76 563 L162 556 L250 615 L338 556 L424 563 L250 697 L76 563 Z " />
<glyph glyph-name="caron" unicode="&#x2c7;" horiz-adv-x="500" d="M76 682 L250 548 L424 682 L338 689 L250 629 L162 689 L76 682 Z " />
<glyph glyph-name="uni02C9" unicode="&#x2c9;" horiz-adv-x="500" d="M115 650 L115 586 L385 586 L385 650 L115 650 Z " />
<glyph glyph-name="breve" unicode="&#x2d8;" horiz-adv-x="500" d="M100 675 C108 643 128 556 250 556 C372 556 392 644 400 675 L331 675 C325 654 314 620 250 620 C218 620 199 629 188 640 C176 651 172 665 169 675 L100 675 Z " />
<glyph glyph-name="dotaccent" unicode="&#x2d9;" horiz-adv-x="500" d="M250 560 C277 560 309 581 309 617 C309 651 282 676 250 676 C219 676 191 651 191 617 C191 580 224 560 250 560 L250 560 Z " />
<glyph glyph-name="ring" unicode="&#x2da;" horiz-adv-x="500" d="M250 544 C290 544 342 576 342 635 C342 689 298 728 250 728 C202 728 158 690 158 635 C158 575 211 544 250 544 L250 544 Z M250 593 C231 593 208 608 208 636 C208 662 230 679 250 679 C272 679 292 661 292 635 C292 609 270 593 250 593 L250 593 Z " />
<glyph glyph-name="ogonek" unicode="&#x2db;" horiz-adv-x="500" d="M382 -122 C374 -124 364 -125 350 -125 C332 -125 286 -125 286 -76 C286 -41 312 -16 328 -1 L283 -1 C260 -14 217 -38 217 -90 C217 -127 244 -172 325 -172 C359 -172 379 -165 391 -161 L382 -122 Z " />
<glyph glyph-name="tilde" unicode="&#x2dc;" horiz-adv-x="500" d="M359 669 C350 653 337 632 315 632 C303 632 290 636 261 653 C229 670 217 674 198 674 C159 674 130 651 99 600 L140 572 C154 591 166 608 188 608 C199 608 210 604 238 588 C271 569 285 566 301 566 C356 566 387 618 401 641 L359 669 Z " />
<glyph glyph-name="hungarumlaut" unicode="&#x2dd;" horiz-adv-x="500" d="M272 713 L160 585 L191 552 L326 656 L272 713 Z M411 713 L298 585 L329 552 L464 656 L411 713 Z " />
<glyph glyph-name="uni03A9" unicode="&#x3a9;" horiz-adv-x="652" d="M169 79 L39 79 L39 0 L271 0 L271 58 C209 99 149 206 149 346 C149 487 218 594 327 594 C442 594 501 471 501 350 C501 198 441 101 380 58 L380 0 L611 0 L611 79 L480 79 L480 82 C539 137 598 240 598 370 C598 522 500 676 328 676 C167 676 52 541 52 364 C52 238 108 140 169 82 L169 79 Z " />
<glyph glyph-name="uni03BC" unicode="&#x3bc;" horiz-adv-x="460" d="M298 493 L298 256 C298 187 297 138 286 110 C276 87 257 70 228 70 C201 70 182 86 172 110 C160 137 159 177 159 256 L159 493 L57 493 L57 -167 L151 -167 L151 74 C158 41 171 -12 228 -12 C286 -12 298 41 306 74 L306 0 L400 0 L400 493 L298 493 Z " />
<glyph glyph-name="pi" unicode="&#x3c0;" horiz-adv-x="541" d="M518 415 L525 498 L149 498 C74 498 30 486 7 469 L19 404 C38 411 64 415 114 415 C111 300 85 109 52 0 L146 0 C179 97 204 303 209 415 L353 415 L353 134 C353 62 359 18 368 0 L462 0 C454 28 449 66 449 139 L449 415 L518 415 Z " />
<glyph glyph-name="uni2010" unicode="&#x2010;" horiz-adv-x="290" d="M39 291 L39 209 L250 209 L250 291 L39 291 Z " />
<glyph glyph-name="endash" unicode="&#x2013;" horiz-adv-x="409" d="M32 290 L32 211 L377 211 L377 290 L32 290 Z " />
<glyph glyph-name="emdash" unicode="&#x2014;" horiz-adv-x="630" d="M31 290 L31 211 L599 211 L599 290 L31 290 Z " />
<glyph glyph-name="quoteleft" unicode="&#x2018;" horiz-adv-x="221" d="M159 432 L159 556 L112 556 L169 678 L120 678 L53 553 L53 432 L159 432 Z " />
<glyph glyph-name="quoteright" unicode="&#x2019;" horiz-adv-x="221" d="M63 543 L110 543 L53 421 L102 421 L169 546 L169 667 L63 667 L63 543 Z " />
<glyph glyph-name="quotesinglbase" unicode="&#x201a;" horiz-adv-x="221" d="M63 124 L63 0 L110 0 L53 -122 L102 -122 L169 3 L169 124 L63 124 Z " />
<glyph glyph-name="quotedblleft" unicode="&#x201c;" horiz-adv-x="375" d="M310 432 L310 556 L263 556 L320 678 L271 678 L204 553 L204 432 L310 432 Z M160 432 L160 556 L113 556 L170 678 L121 678 L54 553 L54 432 L160 432 Z " />
<glyph glyph-name="quotedblright" unicode="&#x201d;" horiz-adv-x="375" d="M64 667 L64 543 L111 543 L54 421 L103 421 L170 546 L170 667 L64 667 Z M214 667 L214 543 L261 543 L204 421 L253 421 L320 546 L320 667 L214 667 Z " />
<glyph glyph-name="quotedblbase" unicode="&#x201e;" horiz-adv-x="375" d="M64 124 L64 0 L111 0 L54 -122 L103 -122 L170 3 L170 124 L64 124 Z M214 124 L214 0 L261 0 L204 -122 L253 -122 L320 3 L320 124 L214 124 Z " />
<glyph glyph-name="dagger" unicode="&#x2020;" horiz-adv-x="511" d="M207 667 L207 479 L60 479 L60 392 L207 392 L207 -167 L304 -167 L304 392 L451 392 L451 479 L304 479 L304 667 L207 667 Z " />
<glyph glyph-name="daggerdbl" unicode="&#x2021;" horiz-adv-x="511" d="M207 667 L207 479 L60 479 L60 392 L207 392 L207 108 L60 108 L60 21 L207 21 L207 -167 L304 -167 L304 21 L451 21 L451 108 L304 108 L304 392 L451 392 L451 479 L304 479 L304 667 L207 667 Z " />
<glyph glyph-name="bullet" unicode="&#x2022;" horiz-adv-x="121" d="M0 409 L0 272 L121 272 L121 409 L0 409 Z " />
<glyph glyph-name="ellipsis" unicode="&#x2026;" horiz-adv-x="716" d="M64 126 L64 0 L175 0 L175 126 L64 126 Z M303 126 L303 0 L414 0 L414 126 L303 126 Z M542 126 L542 0 L653 0 L653 126 L542 126 Z " />
<glyph glyph-name="perthousand" unicode="&#x2030;" horiz-adv-x="988" d="M174 673 C96 673 42 613 42 501 C42 384 99 328 174 328 C246 328 305 381 305 501 C305 611 253 673 174 673 L174 673 Z M174 612 C208 612 227 583 227 501 C227 423 211 389 174 389 C145 389 120 406 120 501 C120 598 147 612 174 612 L174 612 Z M508 339 C433 339 377 283 377 166 C377 55 429 -6 508 -6 C584 -6 639 53 639 166 C639 279 585 339 508 339 L508 339 Z M508 278 C542 278 561 247 561 166 C561 77 539 55 508 55 C479 55 469 75 463 92 C456 113 454 140 454 165 C454 256 477 278 508 278 L508 278 Z M814 339 C739 339 683 282 683 166 C683 56 735 -6 814 -6 C889 -6 945 52 945 166 C945 280 890 339 814 339 L814 339 Z M814 278 C848 278 867 249 867 166 C867 77 845 55 814 55 C786 55 776 74 770 92 C762 117 761 147 761 165 C761 253 782 278 814 278 L814 278 Z M471 667 L146 0 L212 0 L537 667 L471 667 Z " />
<glyph glyph-name="guilsinglleft" unicode="&#x2039;" horiz-adv-x="239" d="M195 97 L142 256 L195 416 L138 416 L44 256 L138 97 L195 97 Z " />
<glyph glyph-name="guilsinglright" unicode="&#x203a;" horiz-adv-x="239" d="M44 416 L96 256 L44 97 L101 97 L195 256 L101 416 L44 416 Z " />
<glyph glyph-name="fraction" unicode="&#x2044;" horiz-adv-x="85" d="M169 667 L-156 0 L-84 0 L241 667 L169 667 Z " />
<glyph glyph-name="Euro" unicode="&#x20ac;" horiz-adv-x="511" d="M505 491 C482 614 428 679 312 679 C184 679 113 593 94 432 L24 432 L14 371 L90 371 C90 359 89 347 89 334 L89 306 L24 306 L14 245 L93 245 C108 74 184 -12 297 -12 C402 -12 472 28 503 170 L410 184 C393 92 356 70 312 70 C247 70 215 125 206 245 L341 245 L351 306 L203 306 L203 328 C203 343 204 357 204 371 L362 371 L372 432 L207 432 C217 549 248 597 312 597 C383 597 398 538 411 476 L505 491 Z " />
<glyph glyph-name="afii61289" unicode="&#x2113;" horiz-adv-x="461" d="M401 157 C377 115 334 69 281 69 C232 69 192 107 191 195 L191 233 C303 345 375 456 375 571 C375 662 337 733 254 733 C173 733 99 668 99 499 L99 248 C76 225 51 206 24 182 L49 129 C66 142 84 158 99 170 C100 166 100 162 100 159 C106 69 150 -8 260 -8 C333 -8 398 29 442 117 L401 157 Z M191 500 C191 624 226 662 257 662 C299 662 314 628 314 574 C314 494 261 407 191 325 L191 500 Z " />
<glyph glyph-name="trademark" unicode="&#x2122;" horiz-adv-x="716" d="M99 287 L173 287 L173 608 L259 608 L259 667 L15 667 L15 608 L99 608 L99 287 Z M289 287 L351 287 L351 607 L433 287 L492 287 L579 606 L579 287 L648 287 L648 667 L542 667 L468 394 L398 667 L289 667 L289 287 Z " />
<glyph glyph-name="Omega" unicode="&#x2126;" horiz-adv-x="652" d="M169 79 L39 79 L39 0 L271 0 L271 58 C209 99 149 206 149 346 C149 487 218 594 327 594 C442 594 501 471 501 350 C501 198 441 101 380 58 L380 0 L611 0 L611 79 L480 79 L480 82 C539 137 598 240 598 370 C598 522 500 676 328 676 C167 676 52 541 52 364 C52 238 108 140 169 82 L169 79 Z " />
<glyph glyph-name="estimated" unicode="&#x212e;" horiz-adv-x="833" d="M800 324 L800 333 C800 524 628 679 416 679 C204 679 32 524 32 333 C32 143 204 -11 416 -11 C539 -11 651 42 719 122 L664 122 C604 53 516 8 417 8 C325 8 242 48 181 110 C176 116 173 123 173 132 L173 320 C173 323 175 324 178 324 L800 324 Z M659 348 C659 346 658 342 655 342 L178 342 C175 342 173 346 173 348 L173 533 C173 543 176 551 182 557 C243 618 326 658 417 658 C508 658 589 619 650 560 C656 554 659 546 659 537 L659 348 Z " />
<glyph glyph-name="partialdiff" unicode="&#x2202;" horiz-adv-x="518" d="M95 623 C120 645 160 669 216 669 C310 669 378 558 378 418 C378 409 378 391 377 382 L376 382 C362 408 314 462 235 462 C129 462 37 367 37 215 C37 108 97 -8 222 -8 C383 -8 472 154 472 389 C472 633 355 750 228 750 C147 750 96 720 66 696 L95 623 Z M231 74 C171 74 132 133 132 212 C132 304 184 384 253 384 C316 384 357 330 368 295 C357 186 309 74 232 74 L231 74 Z " />
<glyph glyph-name="uni2206" unicode="&#x2206;" horiz-adv-x="600" d="M27 0 L572 0 L572 62 L359 682 L246 682 L27 60 L27 0 Z M125 79 L246 410 C261 463 289 535 297 570 L300 570 C311 527 341 447 356 396 L470 79 L125 79 Z " />
<glyph glyph-name="product" unicode="&#x220f;" horiz-adv-x="655" d="M631 577 L631 666 L24 666 L24 577 L120 577 L120 -92 L215 -92 L215 577 L440 577 L440 -92 L535 -92 L535 577 L631 577 Z " />
<glyph glyph-name="summation" unicode="&#x2211;" horiz-adv-x="511" d="M492 -92 L492 0 L140 0 L140 2 L364 303 L160 580 L160 583 L478 583 L478 666 L31 666 L31 598 L255 287 L22 -28 L22 -92 L492 -92 Z " />
<glyph glyph-name="minus" unicode="&#x2212;" horiz-adv-x="511" d="M460 293 L460 374 L51 374 L51 293 L460 293 Z " />
<glyph glyph-name="uni2215" unicode="&#x2215;" horiz-adv-x="85" d="M169 667 L-156 0 L-84 0 L241 667 L169 667 Z " />
<glyph glyph-name="uni2219" unicode="&#x2219;" horiz-adv-x="239" d="M64 320 L64 194 L175 194 L175 320 L64 320 Z " />
<glyph glyph-name="radical" unicode="&#x221a;" horiz-adv-x="540" d="M542 796 L474 796 L311 58 C305 28 301 -3 298 -23 L296 -22 C292 -2 285 27 279 55 L175 379 L31 321 L47 265 L116 292 L257 -137 L337 -137 L542 796 Z " />
<glyph glyph-name="infinity" unicode="&#x221e;" horiz-adv-x="726" d="M679 276 C679 366 620 426 539 426 C457 426 410 367 367 319 C318 379 267 426 197 426 C110 426 46 362 46 271 C46 183 113 119 189 119 C265 119 315 169 364 227 C428 149 476 119 533 119 C608 119 679 178 679 275 L679 276 Z M197 175 C142 175 104 218 103 270 C103 327 136 372 192 372 C256 372 293 320 333 269 C296 227 254 175 198 175 L197 175 Z M533 372 C585 372 622 332 622 271 C622 226 591 175 535 175 C487 175 455 205 396 274 C427 308 472 372 532 372 L533 372 Z " />
<glyph glyph-name="integral" unicode="&#x222b;" horiz-adv-x="354" d="M334 807 C323 813 301 819 280 819 C243 819 205 806 180 778 C142 737 128 677 128 569 C128 412 141 257 141 91 C141 0 130 -41 113 -64 C103 -78 87 -84 71 -84 C54 -84 39 -78 31 -74 L17 -144 C29 -151 56 -159 83 -159 C125 -159 168 -142 191 -100 C212 -64 227 -4 227 92 C227 256 214 408 214 560 C214 645 221 698 242 725 C254 742 272 749 289 749 C301 749 313 744 322 740 L334 807 Z " />
<glyph glyph-name="approxequal" unicode="&#x2248;" horiz-adv-x="513" d="M438 419 C413 376 390 350 353 350 C323 350 302 365 270 383 C246 397 214 419 169 419 C113 419 66 381 38 326 L75 294 C98 329 121 363 163 363 C193 363 218 348 246 331 C289 306 314 293 351 293 C406 293 447 334 474 387 L438 419 Z M438 251 C412 209 390 183 353 183 C322 183 300 200 269 217 C245 230 215 252 169 252 C114 252 66 214 38 159 L75 127 C97 162 121 196 163 196 C193 196 217 182 246 164 C288 139 314 126 351 126 C406 126 447 167 474 219 L438 251 Z " />
<glyph glyph-name="notequal" unicode="&#x2260;" horiz-adv-x="513" d="M372 481 L326 500 L279 394 L46 394 L46 336 L257 336 L199 205 L46 205 L46 147 L177 147 L137 59 L183 39 L231 147 L467 147 L467 205 L253 205 L311 336 L467 336 L467 394 L333 394 L372 481 Z " />
<glyph glyph-name="lessequal" unicode="&#x2264;" horiz-adv-x="513" d="M465 94 L465 163 L110 335 L110 337 L464 508 L464 577 L51 367 L51 304 L465 94 Z M468 -2 L468 57 L46 57 L46 -2 L468 -2 Z " />
<glyph glyph-name="greaterequal" unicode="&#x2265;" horiz-adv-x="513" d="M52 577 L52 508 L407 337 L407 335 L52 163 L52 94 L466 304 L466 367 L52 577 Z M467 -2 L467 57 L47 57 L47 -2 L467 -2 Z " />
<glyph glyph-name="lozenge" unicode="&#x25ca;" horiz-adv-x="540" d="M491 332 L310 710 L233 710 L49 332 L229 -44 L306 -44 L491 332 Z M405 330 L287 87 C282 76 274 49 271 35 L267 35 C265 48 259 69 251 88 L134 335 L250 573 C258 592 264 612 268 629 L271 629 C275 613 282 591 289 573 L405 330 Z " />
<glyph glyph-name="fi" unicode="&#xfb01;" horiz-adv-x="477" d="M174 493 L174 521 C174 568 178 602 241 602 C252 602 259 601 266 600 L266 682 C252 684 241 686 219 686 C78 686 77 585 75 493 L10 493 L10 411 L75 411 L75 0 L174 0 L174 411 L260 411 L260 493 L174 493 Z M315 493 L315 0 L417 0 L417 493 L315 493 Z M419 560 L419 668 L313 668 L313 560 L419 560 Z " />
<glyph glyph-name="fl" unicode="&#xfb02;" horiz-adv-x="477" d="M174 493 L174 521 C174 568 178 602 241 602 C252 602 259 601 266 600 L266 682 C252 684 241 686 219 686 C78 686 77 585 75 493 L10 493 L10 411 L75 411 L75 0 L174 0 L174 411 L260 411 L260 493 L174 493 Z M315 667 L315 0 L417 0 L417 667 L315 667 Z " />
</font>
</svg>
